Ссылка на приватное зеркало нашего сайта всего за 1$. Внимание количество ограничено!!!

2 сезон

iTunes

iTunes

1

iTunes

iTunes

iTunes

WEBRip

iTunes

30
pack

Вам бонус

ВАЖНО

!!Акция!!

Alien_RageХит недели

RePack

Horizon Zero Dawn

ИГРА 18+

pack

RePack

jed

!!Акция!!

Alien_Rage

RePack

fifa19

RePack

Assassins Creed: Odyssey

RePack

NEED FOR SPEED™ PAYBACK

4 сезон

9 сезон

Бесстыжие 9 сезон

Все сериалы

все сериалы на PB.wtf

RePack

FAR CRY 5
  

Храбрая сердцем / Brave (Марк Эндрюс, Бренда Чэпман, Стив Пурселл) [2012, Мультфильм, фэнтези, комедия, приключения, семейный, UHD BDRemux 2160p] DUB [Лицензия] +3xAVO piratbit.pw

Храбрая сердцем через торрент piratbit.pw

Размер: 45.8 GB | Добавлен: 1 год назад | Торрент скачан:12 раз
Скачать  

10-09-2019 05:18 Храбрая сердцем Скачать торрент  

Храбрая сердцем / Brave
Год выпуска: 2012
Страна: США
Жанр: Мультфильм, фэнтези, комедия, приключения, семейный
Продолжительность: 01:34:13
Перевод:

#1: Дублированный | Лицензия
#2: Авторский | Сербин
#3: Авторский | Живов
#4: Авторский | Визгунов

Субтитры: Русские (Full), английские

Режиссер: Марк Эндрюс, Бренда Чэпман, Стив Пурселл

rating

В ролях: Робби Колтрейн, Келли Макдональд, Эмма Томпсон, Джули Уолтерс, Кевин МакКидд, Крэйг Фергюсон, Билли Коннолли

Описание: Испокон веков мифы и легенды окутывают загадочной пеленой живописные отроги Шотландских гор. Искусной лучнице Мериде приходится выбирать свой путь в жизни самостоятельно, и однажды она отказывается следовать древним традициям королевства, бросая вызов могущественным шотландским кланам и их предводителям: нескладному лорду МакГаффину, угрюмому лорду Макинтошу и сварливому лорду Дингволлу. Неосторожные поступки Мериды грозят повергнуть королевство в хаос, и тогда она отправляется за советом к эксцентричной отшельнице, которая вместо помощи накладывает на Мериду опасное заклятье. Юной принцессе предстоит полагаться только на собственную храбрость, чтобы преодолеть могущественное волшебство и победить самого страшного зверя из тех, что водятся в горных долинах.

Качество: UHD BDRemux 2160p
Формат: MKV

Видео: 3840x2160 at 23.976 fps, MPEG-H HEVC HDR Video, 52200 kbps avg
Аудио#1: 48 kHz, AC3, 5.1, 448 Kbps | Лицензия | RUS |
Аудио#2: 48 kHz, DTS-HD MA, 7.1, 2823 Kbps | Сербин | RUS |
Аудио#3: 48 kHz, DTS-HD MA, 7.1, 2820 Kbps | Живов | RUS |
Аудио#4: 48 kHz, DTS-HD MA, 7.1, 2819 Kbps | Визгунов | RUS |
Аудио#5: 48 kHz, TrueHD, 7.1, 7817 Kbps | Оригинал | ENG |
Аудио#6: 48 kHz, AC3, 5.1, 640 Kbps | Оригинал | ENG |
скриншот  скриншот  скриншот  скриншот  скриншот  

General
Unique ID : 170879467096378520043316381521562882412 (0x808E30318EAD52520FC3956A1B0CD16C)
Complete name : D:\Video111\Brave.2012.BDREMUX.2160p.HDR.seleZen.mkv
Format : Matroska
Format version : Version 4
File size : 45.8 GiB
Duration : 1 h 34 min
Overall bit rate mode : Variable
Overall bit rate : 69.6 Mb/s
Movie name : Brave 2012 from селезень
Encoded date : UTC 2019-09-10 04:36:36
Writing application : mkvmerge v22.0.0 ('At The End Of The World') 64-bit
Writing library : libebml v1.3.5 + libmatroska v1.4.8

Video
ID : 1
Format : HEVC
Format/Info : High Efficiency Video Coding
Format profile : Main 10@L5.1@High
HDR format : SMPTE ST 2086, HDR10 compatible
Codec ID : V_MPEGH/ISO/HEVC
Duration : 1 h 34 min
Bit rate : 52.2 Mb/s
Width : 3 840 pixels
Height : 2 160 pixels
Display aspect ratio : 16:9
Frame rate mode : Constant
Frame rate : 23.976 (24000/1001) FPS
Color space : YUV
Chroma subsampling : 4:2:0 (Type 2)
Bit depth : 10 bits
Bits/(Pixel*Frame) : 0.263
Stream size : 34.3 GiB (75%)
Writing library : ATEME Titan File 3.9.0 (4.9.0.0)
Language : English
Default : Yes
Forced : No
Color range : Limited
Color primaries : BT.2020
Transfer characteristics : PQ
Matrix coefficients : BT.2020 non-constant
Mastering display color pri : Display P3
Mastering display luminance : min: 0.0000 cd/m2, max: 1000 cd/m2

Audio #1
ID : 2
Format : AC-3
Format/Info : Audio Coding 3
Commercial name : Dolby Digital
Codec ID : A_AC3
Duration : 1 h 34 min
Bit rate mode : Constant
Bit rate : 448 kb/s
Channel(s) : 6 channels
Channel layout : L R C LFE Ls Rs
Sampling rate : 48.0 kHz
Frame rate : 31.250 FPS (1536 SPF)
Bit depth : 16 bits
Compression mode : Lossy
Stream size : 302 MiB (1%)
Title : Dub [License]
Language : Russian
Service kind : Complete Main
Default : Yes
Forced : Yes

Audio #2
ID : 3
Format : DTS XLL
Format/Info : Digital Theater Systems
Commercial name : DTS-HD Master Audio
Codec ID : A_DTS
Duration : 1 h 34 min
Bit rate mode : Variable
Bit rate : 2 823 kb/s
Channel(s) : 8 channels
Channel layout : C L R LFE Lb Rb Lss Rss
Sampling rate : 48.0 kHz
Frame rate : 93.750 FPS (512 SPF)
Bit depth : 16 bits
Compression mode : Lossless
Stream size : 1.86 GiB (4%)
Title : AVO [Serbin]
Language : Russian
Default : No
Forced : No

Audio #3
ID : 4
Format : DTS XLL
Format/Info : Digital Theater Systems
Commercial name : DTS-HD Master Audio
Codec ID : A_DTS
Duration : 1 h 34 min
Bit rate mode : Variable
Bit rate : 2 820 kb/s
Channel(s) : 8 channels
Channel layout : C L R LFE Lb Rb Lss Rss
Sampling rate : 48.0 kHz
Frame rate : 93.750 FPS (512 SPF)
Bit depth : 16 bits
Compression mode : Lossless
Stream size : 1.86 GiB (4%)
Title : AVO [Zhivov]
Language : Russian
Default : No
Forced : No

Audio #4
ID : 5
Format : DTS XLL
Format/Info : Digital Theater Systems
Commercial name : DTS-HD Master Audio
Codec ID : A_DTS
Duration : 1 h 34 min
Bit rate mode : Variable
Bit rate : 2 819 kb/s
Channel(s) : 8 channels
Channel layout : C L R LFE Lb Rb Lss Rss
Sampling rate : 48.0 kHz
Frame rate : 93.750 FPS (512 SPF)
Bit depth : 16 bits
Compression mode : Lossless
Stream size : 1.85 GiB (4%)
Title : AVO [Vizgunov]
Language : Russian
Default : No
Forced : No

Audio #5
ID : 6
Format : MLP FBA 16-ch
Format/Info : Meridian Lossless Packing FBA with 16-channel presentation
Commercial name : Dolby TrueHD with Dolby Atmos
Codec ID : A_TRUEHD
Duration : 1 h 33 min
Bit rate mode : Variable
Bit rate : 7 817 kb/s
Maximum bit rate : 10.9 Mb/s
Channel(s) : 8 channels
Channel layout : L R C LFE Ls Rs Lb Rb
Sampling rate : 48.0 kHz
Frame rate : 1 200.000 FPS (40 SPF)
Compression mode : Lossless
Stream size : 5.12 GiB (11%)
Title : Original
Language : English
Default : No
Forced : No
Number of dynamic objects : 13
Bed channel count : 1 channel
Bed channel configuration : LFE

Audio #6
ID : 7
Format : AC-3
Format/Info : Audio Coding 3
Commercial name : Dolby Digital
Codec ID : A_AC3
Duration : 1 h 33 min
Bit rate mode : Constant
Bit rate : 640 kb/s
Channel(s) : 6 channels
Channel layout : L R C LFE Ls Rs
Sampling rate : 48.0 kHz
Frame rate : 31.250 FPS (1536 SPF)
Bit depth : 16 bits
Compression mode : Lossy
Stream size : 429 MiB (1%)
Language : English
Service kind : Complete Main
Default : No
Forced : No

Text #1
ID : 8
Format : UTF-8
Codec ID : S_TEXT/UTF8
Codec ID/Info : UTF-8 Plain Text
Duration : 1 h 32 min
Bit rate : 59 b/s
Count of elements : 886
Stream size : 40.4 KiB (0%)
Title : Full
Language : Russian
Default : No
Forced : No

Text #2
ID : 9
Format : UTF-8
Codec ID : S_TEXT/UTF8
Codec ID/Info : UTF-8 Plain Text
Duration : 1 h 32 min
Bit rate : 37 b/s
Count of elements : 876
Stream size : 25.6 KiB (0%)
Title : Full
Language : English
Default : No
Forced : No

Text #3
ID : 10
Format : UTF-8
Codec ID : S_TEXT/UTF8
Codec ID/Info : UTF-8 Plain Text
Duration : 1 h 32 min
Bit rate : 53 b/s
Count of elements : 1395
Stream size : 36.4 KiB (0%)
Title : SDH
Language : English
Default : No
Forced : No

Menu
00:00:00.000 : en:00:00:00.000
00:04:23.680 : en:00:04:23.680
00:09:18.266 : en:00:09:18.266
00:12:54.190 : en:00:12:54.190
00:14:01.090 : en:00:14:01.090
00:16:11.304 : en:00:16:11.304
00:17:37.515 : en:00:17:37.515
00:22:56.625 : en:00:22:56.625
00:27:23.725 : en:00:27:23.725
00:28:52.064 : en:00:28:52.064
00:30:55.687 : en:00:30:55.687
00:34:01.206 : en:00:34:01.206
00:36:04.329 : en:00:36:04.329
00:39:07.762 : en:00:39:07.762
00:41:55.930 : en:00:41:55.930
00:43:28.815 : en:00:43:28.815
00:47:06.574 : en:00:47:06.574
00:48:23.192 : en:00:48:23.192
00:51:04.895 : en:00:51:04.895
00:52:34.693 : en:00:52:34.693
00:54:01.989 : en:00:54:01.989
00:54:46.533 : en:00:54:46.533
00:57:31.698 : en:00:57:31.698
00:59:00.996 : en:00:59:00.996
01:02:49.015 : en:01:02:49.015
01:03:28.221 : en:01:03:28.221
01:09:58.569 : en:01:09:58.569
01:10:38.109 : en:01:10:38.109
01:12:36.561 : en:01:12:36.561
01:13:40.333 : en:01:13:40.333
01:15:36.323 : en:01:15:36.323
01:16:59.907 : en:01:16:59.907
01:17:37.945 : en:01:17:37.945
01:19:49.034 : en:01:19:49.034
01:23:17.618 : en:01:23:17.618
01:24:39.491 : en:01:24:39.491
01:33:28.436 : en:01:33:28.436

piratbit.pw



Скачать Храбрая сердцем через торрент https://img16.lostpic.net/2019/09/10/f9629884a65a297064cf8dc3498fef05.jpg Скачать фильм Храбрая сердцем через торрент бесплантно в хорошем качестве Описание: Испокон веков мифы и легенды окутывают загадочной пеленой живописные отроги Шотландских гор. Искусной лучнице Мериде приходится ... 10 10 2
Торрент: Зарегистрирован [2019-09-10 05:18] · скачан: 12 раз
Статус: √ проверено
Размер: 45.8 GB
Как cкачать? Как скачать Храбрая сердцем через торрент | qTorrent

% Раздел Тема Автор DL S | L
Зарубежные Мультфильмы (BDRip 1080p, 720p, Blu-ray, BD-Remux) [ 7.99 GB ] Храбрая сердцем / Brave [2012 мультфильм BDRip 720p] DUB + 3xAVO sheker187 Скачать
1 | 0
Ultra HD (UHD: 2K, 4K, 8K) — видео сверхвысокой чёткости [ 119.39 GB ] Храброе сердце / Braveheart [1995 военный биография UHD Blu-Ray 2160p] DUB + 9xMVO + 3xAVO [HDR + Dolby Vision] [Custom] sheker187 Скачать
1 | 0
Ultra HD (UHD: 2K, 4K, 8K) — видео сверхвысокой чёткости [ 80.06 GB ] Храброе сердце / Braveheart [1995 военный биография UHD BDRemux 2160p] DUB + 7xMVO + 4xAVO + DVO + VO sheker187 Скачать
1 | 0
Зарубежные Мультфильмы (BDRip 1080p, 720p, Blu-ray, BD-Remux) [ 4.91 GB ] Храбрая сердцем / Brave [2012 мультфильм BDRip 720p от _denis_100 | NNNB] DUB + 3xAVO + Original + Sub _denis_100 Скачать
1 | 0

28-11-2019 20:33  

Отключить всю рекламу на сайте

    Дорогой пользователь! Огромная просьба, поблагодарите релизера, оцените раздачу и оставьте свои комментарий, если Вы скачали Храбрая сердцем через торрент бесплатно! Внесите свою лепту в развитие PiratBit!
    Комментировать посты могут только пользователи прошедшие не сложную регистрацию
    Показать сообщения:    

    Храбрая сердцем через торрент
    Скачать бесплатно Храбрая сердцем
    Храбрая сердцем скачать торрент
    Храбрая сердцем смотреть онлайн
    Cкачать фильм Храбрая сердцем бесплатно
    Храбрая сердцем скачать торрент в хорошем качестве
    Храбрая сердцем смотреть онлайн бесплатно в хорошем качестве


    Вы не можете начинать темы
    Вы не можете отвечать на сообщения
    Вы не можете редактировать свои сообщения
    Вы не можете удалять свои сообщения
    Вы не можете голосовать в опросах
    Вы не можете прикреплять файлы к сообщениям
    Вы можете скачивать файлы