Ссылка на приватное зеркало нашего сайта всего за 1$. Внимание количество ограничено!!!

2 сезон

iTunes

iTunes

1

iTunes

iTunes

iTunes

WEBRip

iTunes

30
pack

Новость дня

ВАЖНО

!!Акция!!

Alien_RageХит недели

RePack

Horizon Zero Dawn

ИГРА 18+

pack

RePack

jed

!!Акция!!

Alien_Rage

RePack

fifa19

RePack

Assassins Creed: Odyssey

RePack

NEED FOR SPEED™ PAYBACK

4 сезон

9 сезон

Бесстыжие 9 сезон

Все сериалы

все сериалы на PB.wtf

RePack

FAR CRY 5
  

Тачки 2 / Cars 2 (Джон Лассетер, Брэд Льюис) [2011, Мультфильм, комедия, приключения, семейный, UHD BDRemux 2160p] DUB [Лицензия] piratbit.pw

Тачки 2 через торрент piratbit.pw

Размер: 37.93 GB | Добавлен: 1 год назад | Торрент скачан:9 раз
Скачать  

10-09-2019 02:39 Тачки 2 Скачать торрент  

Тачки 2 / Cars 2
Год выпуска: 2011
Страна: США
Жанр: Мультфильм, комедия, приключения, семейный
Продолжительность: 01:47:02
Перевод: Дублированный | Лицензия
Субтитры: Русские (Full), английские

Режиссер: Джон Лассетер, Брэд Льюис

rating

В ролях: Оуэн Уилсон, Ларри Кейбл Гай, Майкл Кейн, Эмили Мортимер, Эдди Иззард, Джон Туртурро, Брент Мусбургер, Джо Мантенья, Томас Кречманн, Питер Джекобсон

Описание: Молния МакКуин и его друг Мэтр отправляются в международное путешествие, когда МакКуин получает шанс участвовать в соревнованиях для самых быстрых машин в мире, мировом Гран-при. Этапы этих престижных гонок заведут друзей в Токио, на набережные Парижа, на побережье Италии, и на улицы туманного Лондона.

Качество: UHD BDRemux 2160p
Формат: MKV

Видео: 3840x2160 at 23.976 fps, MPEG-H HEVC HDR Video, 41900 kbps avg
Аудио#1: 48 kHz, AC3, 5.1, 640 Kbps | Лицензия | RUS |
Аудио#2: 48 kHz, TrueHD, 7.1, 7480 Kbps | Оригинал | ENG |
Аудио#3: 48 kHz, AC3, 5.1, 640 Kbps | Оригинал | ENG |
скриншот  скриншот  скриншот  скриншот  скриншот  

General
Unique ID : 278154252567868080850505595351204179497 (0xD1428F778C56B0B15DADB93924A52E29)
Complete name : D:Video111Cars.2.2011.BDREMUX.2160p.HDR.seleZen.mkv
Format : Matroska
Format version : Version 4
File size : 37.9 GiB
Duration : 1 h 47 min
Overall bit rate mode : Variable
Overall bit rate : 50.7 Mb/s
Movie name : Cars 2 2011 from селезень
Encoded date : UTC 2019-09-10 01:22:26
Writing application : mkvmerge v22.0.0 ('At The End Of The World') 64-bit
Writing library : libebml v1.3.5 + libmatroska v1.4.8

Video
ID : 1
Format : HEVC
Format/Info : High Efficiency Video Coding
Format profile : Main 10@L5.1@High
HDR format : SMPTE ST 2086, HDR10 compatible
Codec ID : V_MPEGH/ISO/HEVC
Duration : 1 h 47 min
Bit rate : 41.9 Mb/s
Width : 3 840 pixels
Height : 2 160 pixels
Display aspect ratio : 16:9
Frame rate mode : Constant
Frame rate : 23.976 (24000/1001) FPS
Color space : YUV
Chroma subsampling : 4:2:0 (Type 2)
Bit depth : 10 bits
Bits/(Pixel*Frame) : 0.211
Stream size : 31.3 GiB (83%)
Writing library : ATEME Titan File 3.9.0 (4.9.0.0)
Language : English
Default : Yes
Forced : No
Color range : Limited
Color primaries : BT.2020
Transfer characteristics : PQ
Matrix coefficients : BT.2020 non-constant
Mastering display color pri : Display P3
Mastering display luminance : min: 0.0000 cd/m2, max: 1000 cd/m2

Audio #1
ID : 2
Format : AC-3
Format/Info : Audio Coding 3
Commercial name : Dolby Digital
Codec ID : A_AC3
Duration : 1 h 47 min
Bit rate mode : Constant
Bit rate : 640 kb/s
Channel(s) : 6 channels
Channel layout : L R C LFE Ls Rs
Sampling rate : 48.0 kHz
Frame rate : 31.250 FPS (1536 SPF)
Bit depth : 16 bits
Compression mode : Lossy
Stream size : 490 MiB (1%)
Title : Dub [License]
Language : Russian
Service kind : Complete Main
Default : Yes
Forced : Yes

Audio #2
ID : 3
Format : MLP FBA 16-ch
Format/Info : Meridian Lossless Packing FBA with 16-channel presentation
Commercial name : Dolby TrueHD with Dolby Atmos
Codec ID : A_TRUEHD
Duration : 1 h 47 min
Bit rate mode : Variable
Bit rate : 7 480 kb/s
Maximum bit rate : 6 894 kb/s
Channel(s) : 8 channels
Channel layout : L R C LFE Ls Rs Lb Rb
Sampling rate : 48.0 kHz
Frame rate : 1 200.000 FPS (40 SPF)
Compression mode : Lossless
Stream size : 5.59 GiB (15%)
Title : Original
Language : English
Default : No
Forced : No
Number of dynamic objects : 13
Bed channel count : 1 channel
Bed channel configuration : LFE

Audio #3
ID : 4
Format : AC-3
Format/Info : Audio Coding 3
Commercial name : Dolby Digital
Codec ID : A_AC3
Duration : 1 h 47 min
Bit rate mode : Constant
Bit rate : 640 kb/s
Channel(s) : 6 channels
Channel layout : L R C LFE Ls Rs
Sampling rate : 48.0 kHz
Frame rate : 31.250 FPS (1536 SPF)
Bit depth : 16 bits
Compression mode : Lossy
Stream size : 490 MiB (1%)
Language : English
Service kind : Complete Main
Default : No
Forced : No

Text #1
ID : 5
Format : UTF-8
Codec ID : S_TEXT/UTF8
Codec ID/Info : UTF-8 Plain Text
Duration : 1 h 37 min
Bit rate : 131 b/s
Count of elements : 1521
Stream size : 94.0 KiB (0%)
Title : Full
Language : Russian
Default : No
Forced : No

Text #2
ID : 6
Format : UTF-8
Codec ID : S_TEXT/UTF8
Codec ID/Info : UTF-8 Plain Text
Duration : 1 h 45 min
Bit rate : 75 b/s
Count of elements : 1522
Stream size : 57.9 KiB (0%)
Title : Full
Language : English
Default : No
Forced : No

Menu
00:00:00.000 : en:00:00:00.000
00:01:30.007 : en:00:01:30.007
00:04:48.413 : en:00:04:48.413
00:07:44.506 : en:00:07:44.506
00:12:08.728 : en:00:12:08.728
00:17:49.777 : en:00:17:49.777
00:20:02.159 : en:00:20:02.159
00:22:52.371 : en:00:22:52.371
00:26:35.469 : en:00:26:35.469
00:30:30.996 : en:00:30:30.996
00:32:42.794 : en:00:32:42.794
00:34:14.344 : en:00:34:14.344
00:37:16.401 : en:00:37:16.401
00:40:44.984 : en:00:40:44.984
00:42:53.988 : en:00:42:53.988
00:46:19.401 : en:00:46:19.401
00:46:58.774 : en:00:46:58.774
00:49:49.361 : en:00:49:49.361
00:53:57.234 : en:00:53:57.234
00:54:58.086 : en:00:54:58.086
00:57:37.036 : en:00:57:37.036
00:59:28.565 : en:00:59:28.565
01:02:17.775 : en:01:02:17.775
01:05:57.119 : en:01:05:57.119
01:12:32.598 : en:01:12:32.598
01:14:06.733 : en:01:14:06.733
01:15:25.020 : en:01:15:25.020
01:21:13.827 : en:01:21:13.827
01:23:23.081 : en:01:23:23.081
01:29:07.758 : en:01:29:07.758
01:31:48.961 : en:01:31:48.961
01:32:42.056 : en:01:32:42.056
01:38:19.434 : en:01:38:19.434

piratbit.pw



Скачать Тачки 2 через торрент https://img16.lostpic.net/2019/09/10/7523db95507efd6f56a9350da528e008.jpg Скачать фильм Тачки 2 через торрент бесплантно в хорошем качестве Описание: Молния МакКуин и его друг Мэтр отправляются в международное путешествие, когда МакКуин получает шанс участвовать в соревнованиях ... 10 10 3
Торрент: Зарегистрирован [2019-09-10 02:39] · скачан: 9 раз
Статус: √ проверено
Размер: 37.93 GB
Как cкачать? Как скачать Тачки 2 через торрент | qTorrent

% Раздел Тема Автор DL S | L
Зарубежные Мультфильмы (BDRip 1080p, 720p, Blu-ray, BD-Remux) [ 5.06 GB ] Тачки 2 / Cars 2 [2011 Мультфильм BDRip 720p] DUB potroks Скачать
2 | 0
Иностранные мультфильмы [ 2.05 GB ] Тачки 2 / Cars 2 [2011 антиутопия HDRip] лицензия Rauli Скачать
3 | 0
3D Мультфильмы [ 7.97 GB ] Тачки 2 3D / Cars 2 3D [2011 мультфильм BDRip 1080p] Anamorph OverUnder ACFIORENTINA Скачать
1 | 0
Аркады [ 1.39 GB ] Disney: Тачки 2 / Cars 2: The Video Game 2011 [RePackRUArcade / Racing / 3D] от R.G. Pirat's R.G. Repacker's Скачать
1 | 0
NoCD/NoDVD [ 37 MB ] Disney: Тачки 2 / Cars 2: The Video Game [v1.0 RU] NoDVD =Чувак= Скачать
1 | 0
PSX-PSP - Игры [ 697 MB ] [PSP] Тачки 2 / Cars 2: The Video Game 2011[FULL][ISO][RUS][MULTI3] Mr. Freeman Скачать
1 | 0
Зарубежные Мультфильмы (BDRip 1080p, 720p, Blu-ray, BD-Remux) [ 5.2 GB ] Тачки 2 / Cars 2 [2011 Мультфильм BDRip 720p] NarutoSasuke Скачать
1 | 0

28-11-2019 20:33  

Отключить всю рекламу на сайте

    Дорогой пользователь! Огромная просьба, поблагодарите релизера, оцените раздачу и оставьте свои комментарий, если Вы скачали Тачки 2 через торрент бесплатно! Внесите свою лепту в развитие PiratBit!
    Комментировать посты могут только пользователи прошедшие не сложную регистрацию
    Показать сообщения:    

    Тачки 2 через торрент
    Скачать бесплатно Тачки 2
    Тачки 2 скачать торрент
    Тачки 2 смотреть онлайн
    Cкачать фильм Тачки 2 бесплатно
    Тачки 2 скачать торрент в хорошем качестве
    Тачки 2 смотреть онлайн бесплатно в хорошем качестве


    Вы не можете начинать темы
    Вы не можете отвечать на сообщения
    Вы не можете редактировать свои сообщения
    Вы не можете удалять свои сообщения
    Вы не можете голосовать в опросах
    Вы не можете прикреплять файлы к сообщениям
    Вы можете скачивать файлы