1 сезон

1 сезон

iTunes

1

КиноПоиск HD

Кинопоиск HD

iTunes

13

1 сезон

RePack

30

Новинка

ВАЖНО

ИГРА 18+

pack

RePack

MK11
pack

Легкие деньги

RePack

jed

RePack

fifa19

RePack

RDR2

RePack

NEED FOR SPEED™ PAYBACK

4 сезон

9 сезон

Бесстыжие 9 сезон

Все сериалы

все сериалы на PB.wtf

RePack

FAR CRY 5
  
Magnet ссылка

Тёмные времена / Dark Age (Арч Николсон) [1987, ужасы, приключения, BDRip 720p by msltel] AVO piratbit.pw

Тёмные времена через торрент piratbit.pw

Размер: 3.99 GB | Добавлен: 1 год 7 мес. назад | Торрент скачан:7 раз
Скачать  

09-09-2019 08:42 Тёмные времена Скачать торрент  

Название: Тёмные времена
Оригинальное название: Dark Age
Год выпуска: 1987
Страна: Австралия
Жанр: ужасы, приключения
Продолжительность: 01:30:30
Перевод: авторский

Режиссер: Арч Николсон
В ролях: Джон Джэррэт, Никки Когхилл, Макс Фиппс, Бёрнэм Бёрнэм, Дэвид Галпилил, Рэй Мигер, Джефф Эшби, Пол Бертрам, Рон Бланчард, Джерри Дагган

О фильме: На австралийской северной территории живёт гигантский морской крокодил, который охотится на людей. Смотрителю национального парка поручено избавить местное население от чудовища. Но охоте мешают аборигены, верящие, что в крокодиле живёт дух прошлого...



Качество: BDRip 720p
Формат: MKV
Видео: MPEG-4 AVC, 5730 Кбит/с, 1280x720, 23.976 кадр/с
Аудио 1: русский, AC3, 192 kbps, 2 ch, 48 kHz [авторский, Юрий Живов]
Аудио 2: английский, AC3, 384 kbps, 2 ch, 48 kHz [оригинал]
Субтитры: английские
Главы/чаптеры
Общее
Уникальный идентификатор : 218632414535490329194482588566968313000 (0xA47B12470ED65CB19E947A712237A4A8)
Полное имя : D:\Video\Тёмные времена.1987.BDRip 720p by msltel.mkv
Формат : Matroska
Версия формата : Version 4
Размер файла : 3,99 Гбайт
Продолжительность : 1 ч. 30 м.
Общий поток : 6308 Кбит/сек
Название фильма : Rip by msltel
Дата кодирования : UTC 2019-09-09 05:01:31
Программа кодирования : mkvmerge v8.2.0 ('World of Adventure') 64bit
Библиотека кодирования : libebml v1.3.1 + libmatroska v1.4.2

Видео
Идентификатор : 1
Формат : AVC
Формат/Информация : Advanced Video Codec
Профиль формата : High@L4.1
Настройки формата : CABAC / 9 Ref Frames
Параметр CABAC формата : Да
Параметр RefFrames формата : 9 кадров
Идентификатор кодека : V_MPEG4/ISO/AVC
Продолжительность : 1 ч. 30 м.
Битрейт : 5730 Кбит/сек
Ширина : 1280 пикселей
Высота : 720 пикселей
Соотношение сторон : 16:9
Режим частоты кадров : Постоянный
Частота кадров : 23,976 (24000/1001) кадра/сек
Цветовое пространство : YUV
Субдискретизация насыщенности : 4:2:0
Битовая глубина : 8 бит
Тип развёртки : Прогрессивная
Бит/(Пиксели*Кадры) : 0.259
Размер потока : 3,62 Гбайт (91%)
Библиотека кодирования : x264 core 157 r2935 545de2f
Настройки программы : cabac=1 / ref=9 / deblock=1:-2:-2 / analyse=0x3:0x113 / me=umh / subme=11 / psy=1 / psy_rd=1.00:0.15 / mixed_ref=1 / me_range=32 / chroma_me=1 / trellis=2 / 8x8dct=1 / cqm=0 / deadzone=21,11 / fast_pskip=0 / chroma_qp_offset=-3 / threads=6 / lookahead_threads=1 / sliced_threads=0 / nr=0 / decimate=1 / interlaced=0 / bluray_compat=0 / constrained_intra=0 / bframes=10 / b_pyramid=2 / b_adapt=2 / b_bias=0 / direct=1 / weightb=1 / open_gop=0 / weightp=2 / keyint=230 / keyint_min=23 / scenecut=40 / intra_refresh=0 / rc_lookahead=40 / rc=crf / mbtree=1 / crf=21.5 / qcomp=0.60 / qpmin=0 / qpmax=69 / qpstep=4 / vbv_maxrate=50000 / vbv_bufsize=62500 / crf_max=0.0 / nal_hrd=none / filler=0 / ip_ratio=1.40 / aq=1:1.00
Язык : English
Default : Да
Forced : Нет

Аудио #1
Идентификатор : 2
Формат : AC-3
Формат/Информация : Audio Coding 3
Коммерческое название : Dolby Digital
Идентификатор кодека : A_AC3
Продолжительность : 1 ч. 30 м.
Вид битрейта : Постоянный
Битрейт : 192 Кбит/сек
Каналы : 2 канала
ChannelLayout : L R
Частота : 48,0 КГц
Частота кадров : 31,250 кадров/сек (1536 SPF)
Битовая глубина : 16 бит
Метод сжатия : С потерями
Размер потока : 124 Мбайт (3%)
Заголовок : Юрий Живов
Язык : Russian
ServiceKind/String : Complete Main
Default : Нет
Forced : Нет

Аудио #2
Идентификатор : 3
Формат : AC-3
Формат/Информация : Audio Coding 3
Коммерческое название : Dolby Digital
Идентификатор кодека : A_AC3
Продолжительность : 1 ч. 30 м.
Вид битрейта : Постоянный
Битрейт : 384 Кбит/сек
Каналы : 2 канала
ChannelLayout : L R
Частота : 48,0 КГц
Частота кадров : 31,250 кадров/сек (1536 SPF)
Битовая глубина : 16 бит
Метод сжатия : С потерями
Размер потока : 249 Мбайт (6%)
Заголовок : original
Язык : English
ServiceKind/String : Complete Main
Default : Нет
Forced : Нет

Текст
Идентификатор : 4
Формат : UTF-8
Идентификатор кодека : S_TEXT/UTF8
Идентификатор кодека/Информация : UTF-8 Plain Text
Продолжительность : 1 ч. 23 м.
Битрейт : 44 бит/сек
ElementCount : 1144
Размер потока : 27,0 Кбайт (0%)
Заголовок : английские
Язык : English
Default : Нет
Forced : Нет

Меню
00:00:00.000 : en:Chapter 01
00:07:01.421 : en:Chapter 02
00:13:47.452 : en:Chapter 03
00:19:02.892 : en:Chapter 04
00:26:50.400 : en:Chapter 05
00:33:02.731 : en:Chapter 06
00:37:52.687 : en:Chapter 07
00:43:12.924 : en:Chapter 08
00:48:28.781 : en:Chapter 09
00:51:50.024 : en:Chapter 10
00:58:38.765 : en:Chapter 11
01:04:37.957 : en:Chapter 12
01:08:50.918 : en:Chapter 13
01:13:28.779 : en:Chapter 14
01:17:51.500 : en:Chapter 15
01:21:49.196 : en:Chapter 16
01:27:34.499 : en:Chapter 17
piratbit.pw



Скачать Тёмные времена через торрент https://c.radikal.ru/c24/1909/02/dd103f0894dd.jpg Скачать фильм Тёмные времена через торрент бесплантно в хорошем качестве О фильме: На австралийской северной территории живёт гигантский морской крокодил, который охотится на людей. Смотрителю национального парка ... 10 10 1
Info! Золотая раздача, скачанное не засчитывается.
Торрент: Зарегистрирован [2019-09-09 08:42] · скачан: 7 раз
Статус: √ проверено
Размер: 3.99 GB
Как cкачать? Как скачать Тёмные времена через торрент | UTorrent

% Раздел Тема Автор DL S | L
Фильмы с авторской озвучкой [ 9.47 GB ] Тёмные времена / Dark Age [1987 BDRip 1080p by msltel] AVO msltel Скачать
1 | 0

28-11-2019 20:33  

Отключить всю рекламу на сайте

    Дорогой пользователь! Огромная просьба, поблагодарите релизера, оцените раздачу и оставьте свои комментарий, если Вы скачали Тёмные времена через торрент бесплатно! Внесите свою лепту в развитие PiratBit!
    Комментировать посты могут только пользователи прошедшие не сложную регистрацию
    Показать сообщения:    

    Тёмные времена через торрент
    Скачать бесплатно Тёмные времена
    Тёмные времена скачать торрент
    Тёмные времена смотреть онлайн
    Cкачать фильм Тёмные времена бесплатно
    Тёмные времена скачать торрент в хорошем качестве
    Тёмные времена смотреть онлайн бесплатно в хорошем качестве


    Вы не можете начинать темы
    Вы не можете отвечать на сообщения
    Вы не можете редактировать свои сообщения
    Вы не можете удалять свои сообщения
    Вы не можете голосовать в опросах
    Вы не можете прикреплять файлы к сообщениям
    Вы можете скачивать файлы