MEGA SALE -50% FORZA HORIZON 4 ULTIMATE+ВСЕ DLC+ОНЛАЙН всего за 599р. 299 руб. (супер цена). Внимание количество ограничено!!!

iTunes

1+1

iTunes

мы

iTunes

1

iTunes

Чернобыль

iTunes

Ральф против интернета

Лицензия

ПШазам

Лицензия

Игра престолов

Лицензия

30
pack

ВАЖНО

!!Акция!!

Alien_RageХит недели

RePack

Resident Evil 21

ИГРА 18+

pack

RePack

Metro:Exodus

!!Акция!!

Alien_Rage

RePack

fifa19

RePack

Assassins Creed: Odyssey

RePack

NEED FOR SPEED™ PAYBACK

3 сезон

9 сезон

Бесстыжие 9 сезон

Все сериалы

все сериалы на PB.wtf

RePack

FAR CRY 5
Ребята, катастрофически не хватает 7730р. для оплаты серверов за АВГУСТ (всвязи с блокировками трафик упал в 3 раза), 1-2р., выручайте.
  

Мертвые не умирают / The Dead Don't Die (Джим Джармуш) [2019, ужасы, фэнтези, комедия, BDRip-AVC] DUB [iTunes] - ExKinoRay piratbit.pw

Мертвые не умирают через торрент piratbit.pw

Раздают: 61 [ 451 KB/s ] Качают: 4 [ 0 KB/s ]
Размер: 1.41 GB | Добавлен: 8 д. назад | Торрент скачан:63 раза
Скачать  

09-09-2019 01:06 Мертвые не умирают Скачать торрент  

Название: Мертвые не умирают
Оригинальное название: The Dead Don't Die
Год выпуска: 2019
Жанр: Ужасы, фэнтези, комедия
Режиссер: Джим Джармуш
В ролях: Адам Драйвер, Билл Мюррей, Клоэ Севиньи, Тильда Суинтон, Стив Бушеми, Селена Гомес, RZA, Алисса Мария Апп, Карл Арчилези, Моника Эйрс, Дэнни Гловер, Игги Поп, Том Уэйтс, Эстер Балинт

Описание: В захолустном американском городке что-то пошло не так. День никак не заканчивается, домашние животные убегают в лес, телефоны не работают, а по радио играет одна и та же песня. Вскоре выяснится, что эти аномалии происходят по всей земле, и ядовитый лунный свет воскресит давно почивших. Помощник шерифа уверен — грядёт нашествие зомби, и ничем хорошим это не кончится.

rating

Страна: США, Швеция
Студия: Animal Kingdom, Film i Väst
Продолжительность: 01:44:28
Перевод: Дублированный | iTunes

Формат: MKV
Качество: BDRip-AVC
Видео: MPEG-4 AVC, 1547 Kbps, 720x404 (16:9), 23.976 кадр/с
Аудио : 48 kHz, AC3, 5.1, 384 Kbps | RUS |
Субтитры: Русские (Forced, full (Enigma))
General
Unique ID : 241654710249161548836583962429295516956 (0xB5CD0117A631DD6F9CF60AF4E2655D1C)
Complete name : F:\The.Dead.Dont.Die.2019.BDRip.AVC.ExKinoRay.mkv
Format : Matroska
Format version : Version 2
File size : 1.41 GiB
Duration : 1 h 44 min
Overall bit rate : 1 931 kb/s
Movie name : The Dead Dont Die 2019 from ExKinoRay
Encoded date : UTC 2019-09-08 03:56:08
Writing application : mkvmerge v5.6.0 ('Kenya Kane') built on May 27 2012 16:44:04
Writing library : libebml v1.2.3 + libmatroska v1.3.0

Video
ID : 1
Format : AVC
Format/Info : Advanced Video Codec
Format profile : High@L4.1
Format settings, CABAC : Yes
Format settings, ReFrames : 12 frames
Codec ID : V_MPEG4/ISO/AVC
Duration : 1 h 44 min
Bit rate : 1 547 kb/s
Width : 720 pixels
Height : 404 pixels
Display aspect ratio : 16:9
Frame rate mode : Constant
Frame rate : 23.976 (24000/1001) FPS
Original frame rate : 23.976 (23976/1000) FPS
Color space : YUV
Chroma subsampling : 4:2:0
Bit depth : 8 bits
Scan type : Progressive
Bits/(Pixel*Frame) : 0.222
Stream size : 1.10 GiB (78%)
Title : Enigma
Writing library : x264 core 152 r2851 ba24899
Encoding settings : cabac=1 / ref=12 / deblock=1:-2:-2 / analyse=0x3:0x113 / me=umh / subme=11 / psy=1 / psy_rd=1.00:0.00 / mixed_ref=1 / me_range=32 / chroma_me=1 / trellis=2 / 8x8dct=1 / cqm=0 / deadzone=21,11 / fast_pskip=0 / chroma_qp_offset=-2 / threads=12 / lookahead_threads=3 / sliced_threads=0 / nr=0 / decimate=0 / interlaced=0 / bluray_compat=0 / constrained_intra=0 / bframes=10 / b_pyramid=2 / b_adapt=2 / b_bias=0 / direct=3 / weightb=1 / open_gop=0 / weightp=2 / keyint=240 / keyint_min=23 / scenecut=40 / intra_refresh=0 / rc=2pass / mbtree=0 / bitrate=1547 / ratetol=1.0 / qcomp=0.60 / qpmin=0 / qpmax=51 / qpstep=4 / cplxblur=20.0 / qblur=0.5 / ip_ratio=1.26 / pb_ratio=1.30 / aq=1:1.00
Default : Yes
Forced : No
Color range : Limited
Color primaries : BT.709
Transfer characteristics : BT.709
Matrix coefficients : BT.709

Audio
ID : 2
Format : AC-3
Format/Info : Audio Coding 3
Mode extension : CM (complete main)
Format settings, Endianness : Big
Codec ID : A_AC3
Duration : 1 h 44 min
Bit rate mode : Constant
Bit rate : 384 kb/s
Channel(s) : 6 channels
Channel positions : Front: L C R, Side: L R, LFE
Sampling rate : 48.0 kHz
Frame rate : 31.250 FPS (1536 spf)
Compression mode : Lossy
Stream size : 287 MiB (20%)
Title : iTunes
Language : Russian
Default : Yes
Forced : No

Text #1
ID : 3
Format : UTF-8
Codec ID : S_TEXT/UTF8
Codec ID/Info : UTF-8 Plain Text
Title : Forced (Enigma)
Language : Russian
Default : Yes
Forced : No

Text #2
ID : 4
Format : UTF-8
Codec ID : S_TEXT/UTF8
Codec ID/Info : UTF-8 Plain Text
Title : Full (Enigma)
Language : Russian
Default : No
Forced : No

Menu
00:00:00.000 : en:Chapter 01
00:05:01.384 : en:Chapter 02
00:10:04.437 : en:Chapter 03
00:17:04.148 : en:Chapter 04
00:22:28.847 : en:Chapter 05
00:28:04.724 : en:Chapter 06
00:31:36.269 : en:Chapter 07
00:37:56.649 : en:Chapter 08
00:43:22.641 : en:Chapter 09
00:50:53.050 : en:Chapter 10
00:57:04.504 : en:Chapter 11
01:01:16.964 : en:Chapter 12
01:06:41.580 : en:Chapter 13
01:09:20.823 : en:Chapter 14
01:14:47.774 : en:Chapter 15
01:18:47.681 : en:Chapter 16
01:23:50.442 : en:Chapter 17
01:28:10.201 : en:Chapter 18
01:33:15.798 : en:Chapter 19
01:39:11.487 : en:Chapter 20


Релиз от:

Автор релиза: piratbit.pw



Скачать Мертвые не умирают через торрент https://d.radikal.ru/d01/1909/52/9eb368e8a03d.png Скачать фильм Мертвые не умирают через торрент бесплантно в хорошем качестве Описание: В захолустном американском городке что-то пошло не так. День никак не заканчивается, домашние животные убегают в лес, телефоны ... 10 10 2
Info! Золотая раздача, скачанное не засчитывается.
Торрент: Зарегистрирован [2019-09-09 01:06] · скачан: 63 раз
Статус: √ проверено
Размер: 1.41 GB
Как cкачать? Как скачать Мертвые не умирают через торрент | qTorrent


>> Регистрируемся здесь <<






Отзывы и комментарии о схеме читаем и пишем здесь: ---> Отзывы и комментарии о схеме

Новые благодарочки в телеграм довольных пользователей:
скриншот   скриншот   скриншот   скриншот   скриншот
    Дорогой пользователь! Огромная просьба, поблагодарите релизера, оцените раздачу и оставьте свои комментарий, если Вы скачали Мертвые не умирают через торрент бесплатно! Внесите свою лепту в развитие PiratBit!
    Комментировать посты могут только пользователи прошедшие не сложную регистрацию
    Показать сообщения:    

    Мертвые не умирают через торрент
    Скачать бесплатно Мертвые не умирают
    Мертвые не умирают скачать торрент
    Мертвые не умирают смотреть онлайн
    Cкачать фильм Мертвые не умирают бесплатно
    Мертвые не умирают скачать торрент в хорошем качестве
    Мертвые не умирают смотреть онлайн бесплатно в хорошем качестве


    Вы не можете начинать темы
    Вы не можете отвечать на сообщения
    Вы не можете редактировать свои сообщения
    Вы не можете удалять свои сообщения
    Вы не можете голосовать в опросах
    Вы не можете прикреплять файлы к сообщениям
    Вы можете скачивать файлы