Ссылка на приватное зеркало нашего сайта всего за 1$. Внимание количество ограничено!!!

2 сезон

iTunes

iTunes

1

iTunes

iTunes

iTunes

WEBRip

iTunes

30
pack

Вам бонус

ВАЖНО

!!Акция!!

Alien_RageХит недели

RePack

Horizon Zero Dawn

ИГРА 18+

pack

RePack

jed

!!Акция!!

Alien_Rage

RePack

fifa19

RePack

Assassins Creed: Odyssey

RePack

NEED FOR SPEED™ PAYBACK

4 сезон

9 сезон

Бесстыжие 9 сезон

Все сериалы

все сериалы на PB.wtf

RePack

FAR CRY 5
  

В поисках Немо / Finding Nemo (Эндрю Стэнтон, Ли Анкрич) [2003, Мультфильм, комедия, приключения, семейный, UHD BDRemux 2160p] DUB (rus,ukr) +3xDVO+4xAVO piratbit.pw

В поисках Немо через торрент piratbit.pw

Размер: 51.78 GB | Добавлен: 1 год назад | Торрент скачан:14 раз
Скачать  

07-09-2019 15:37 В поисках Немо Скачать торрент  

В поисках Немо / Finding Nemo
Год выпуска: 2003
Страна: США, Австралия
Жанр: Мультфильм, комедия, приключения, семейный
Продолжительность: 01:40:54
Перевод: Дублированный, профессиональный многоголосый, авторский
Субтитры: английские

Режиссер: Эндрю Стэнтон, Ли Анкрич

rating

В ролях: Альберт Брукс, Эллен ДеДженерес, Александр Гулд, Уиллем Дефо, Брэд Гэррет, Эллисон Джэнни, Остин Пендлтон, Стивен Рут, Викки Льюис, Джо Рэнфт

Описание: Многое известно нам из жизни мам-одиночек. А как быть с папами?... Они тоже умеют любить своих единственных сыновей! И наш герой считал, что "именно любит", пока однажды обстоятельства не унесли его сына в неизвестном направлении... Океан такой большой и глубокий, а ты так мал и напуган... Но если ты папа - у тебя нет времени на раздумья! Тем более, что мир оказался - не без добрых людей!..., то есть рыб!..., и еще птиц!..., если не считать черепах!

Качество: UHD BDRemux 2160p
Формат: MKV

Видео: HEVC HDR, 3840x2160 (16:9), 23.976 fps, 53.3 Mb/s (0.268 bit/pixel)
Аудио #1: TrueHD, 48.0 kHz, 8 ch, 6 896 kb/s, VBR (English)
Аудио #2: DTS, 48.0 kHz, 8 ch, 4 918 kb/s, VBR (Russian) | AVO Гаврилов
Аудио #3: DTS, 48.0 kHz, 8 ch, 4 947 kb/s, VBR (Russian) | AVO Живов
Аудио #4: AC-3, 48.0 kHz, 6 ch, 256 kb/s, CBR (Russian) | DVO закадровый #1 (с пиратского DVD-диска)
Аудио #5: DTS, 48.0 kHz, 6 ch, 768 kb/s, CBR (Russian) | DVO С.Р.И.
Аудио #6: AC-3, 48.0 kHz, 6 ch, 448 kb/s, CBR (Russian) | DVO закадровый #2
Аудио #7: AC-3, 48.0 kHz, 1 ch, 128 kb/s, CBR (Russian) | AVO Гранкин
Аудио #8: AC-3, 48.0 kHz, 6 ch, 448 kb/s, CBR (Russian) | AVO Карповский
Аудио #9: AC-3, 48.0 kHz, 6 ch, 640 kb/s, CBR (Russian) | DUB Blu-Ray CEE
Аудио #10: AC-3, 48.0 kHz, 6 ch, 640 kb/s, CBR (Ukrainian) | DUB Blu-Ray CEE
скриншот  скриншот  

скриншот  скриншот  скриншот  

General
Unique ID : 106446297977226612174056214674613627150 (0x5014CFAFAD046B7758C62120A5FA690E)
Complete name : D:\Torrent\Finding_Nemo_2003_UHD_BD_Remux.mkv
Format : Matroska
Format version : Version 4
File size : 51.8 GiB
Duration : 1 h 40 min
Overall bit rate mode : Variable
Overall bit rate : 73.5 Mb/s
Movie name : Finding Nemo (2003) 4K
Encoded date : UTC 2019-09-05 19:55:12
Writing application : mkvmerge v37.0.0 ('Leave It') 64-bit
Writing library : libebml v1.3.9 + libmatroska v1.5.2

Video
ID : 1
Format : HEVC
Format/Info : High Efficiency Video Coding
Format profile : Main 10@L5.1@High
HDR format : SMPTE ST 2086, HDR10 compatible
Codec ID : V_MPEGH/ISO/HEVC
Duration : 1 h 40 min
Bit rate : 53.3 Mb/s
Width : 3 840 pixels
Height : 2 160 pixels
Display aspect ratio : 16:9
Frame rate mode : Constant
Frame rate : 23.976 (24000/1001) FPS
Color space : YUV
Chroma subsampling : 4:2:0 (Type 2)
Bit depth : 10 bits
Bits/(Pixel*Frame) : 0.268
Stream size : 37.6 GiB (73%)
Writing library : ATEME Titan File 3.9.0 (4.9.0.0)
Default : Yes
Forced : No
Color range : Limited
Color primaries : BT.2020
Transfer characteristics : PQ
Matrix coefficients : BT.2020 non-constant
Mastering display color pri : Display P3
Mastering display luminance : min: 0.0000 cd/m2, max: 1000 cd/m2

Audio #1
ID : 2
Format : MLP FBA 16-ch
Format/Info : Meridian Lossless Packing FBA with 16-channel presentation
Commercial name : Dolby TrueHD with Dolby Atmos
Codec ID : A_TRUEHD
Duration : 1 h 40 min
Bit rate mode : Variable
Bit rate : 6 896 kb/s
Maximum bit rate : 9 480 kb/s
Channel(s) : 8 channels
Channel layout : L R C LFE Ls Rs Lb Rb
Sampling rate : 48.0 kHz
Frame rate : 1 200.000 FPS (40 SPF)
Compression mode : Lossless
Stream size : 4.86 GiB (9%)
Title : TrueHD Atmos 7.1
Language : English
Default : Yes
Forced : No
Number of dynamic objects : 13
Bed channel count : 1 channel
Bed channel configuration : LFE

Audio #2
ID : 3
Format : DTS XLL
Format/Info : Digital Theater Systems
Commercial name : DTS-HD Master Audio
Codec ID : A_DTS
Duration : 1 h 40 min
Bit rate mode : Variable
Bit rate : 4 918 kb/s
Channel(s) : 8 channels
Channel layout : C L R LFE Lb Rb Lss Rss
Sampling rate : 48.0 kHz
Frame rate : 93.750 FPS (512 SPF)
Bit depth : 24 bits
Compression mode : Lossless
Stream size : 3.47 GiB (7%)
Title : AVO Гаврилов
Language : Russian
Default : No
Forced : No

Audio #3
ID : 4
Format : DTS XLL
Format/Info : Digital Theater Systems
Commercial name : DTS-HD Master Audio
Codec ID : A_DTS
Duration : 1 h 40 min
Bit rate mode : Variable
Bit rate : 4 947 kb/s
Channel(s) : 8 channels
Channel layout : C L R LFE Lb Rb Lss Rss
Sampling rate : 48.0 kHz
Frame rate : 93.750 FPS (512 SPF)
Bit depth : 24 bits
Compression mode : Lossless
Stream size : 3.49 GiB (7%)
Title : AVO Живов
Language : Russian
Default : No
Forced : No

Audio #4
ID : 5
Format : AC-3
Format/Info : Audio Coding 3
Commercial name : Dolby Digital
Codec ID : A_AC3
Duration : 1 h 32 min
Bit rate mode : Constant
Bit rate : 256 kb/s
Channel(s) : 6 channels
Channel layout : L R C LFE Ls Rs
Sampling rate : 48.0 kHz
Frame rate : 31.250 FPS (1536 SPF)
Bit depth : 16 bits
Compression mode : Lossy
Stream size : 170 MiB (0%)
Title : DVO закадровый #1 (с пиратского DVD-диска)
Language : Russian
Service kind : Complete Main
Default : No
Forced : No

Audio #5
ID : 6
Format : DTS
Format/Info : Digital Theater Systems
Codec ID : A_DTS
Duration : 1 h 40 min
Bit rate mode : Constant
Bit rate : 768 kb/s
Channel(s) : 6 channels
Channel layout : C L R Ls Rs LFE
Sampling rate : 48.0 kHz
Frame rate : 93.750 FPS (512 SPF)
Bit depth : 24 bits
Compression mode : Lossy
Stream size : 554 MiB (1%)
Title : DVO С.Р.И.
Language : Russian
Default : No
Forced : No

Audio #6
ID : 7
Format : AC-3
Format/Info : Audio Coding 3
Commercial name : Dolby Digital
Codec ID : A_AC3
Duration : 1 h 40 min
Bit rate mode : Constant
Bit rate : 448 kb/s
Channel(s) : 6 channels
Channel layout : L R C LFE Ls Rs
Sampling rate : 48.0 kHz
Frame rate : 31.250 FPS (1536 SPF)
Bit depth : 16 bits
Compression mode : Lossy
Stream size : 323 MiB (1%)
Title : DVO закадровый #2
Language : Russian
Service kind : Complete Main
Default : No
Forced : No

Audio #7
ID : 8
Format : AC-3
Format/Info : Audio Coding 3
Commercial name : Dolby Digital
Codec ID : A_AC3
Duration : 1 h 40 min
Bit rate mode : Constant
Bit rate : 128 kb/s
Channel(s) : 1 channel
Channel layout : C
Sampling rate : 48.0 kHz
Frame rate : 31.250 FPS (1536 SPF)
Bit depth : 16 bits
Compression mode : Lossy
Stream size : 92.4 MiB (0%)
Title : AVO Гранкин
Language : Russian
Service kind : Complete Main
Default : No
Forced : No

Audio #8
ID : 9
Format : AC-3
Format/Info : Audio Coding 3
Commercial name : Dolby Digital
Codec ID : A_AC3
Duration : 1 h 40 min
Bit rate mode : Constant
Bit rate : 448 kb/s
Channel(s) : 6 channels
Channel layout : L R C LFE Ls Rs
Sampling rate : 48.0 kHz
Frame rate : 31.250 FPS (1536 SPF)
Bit depth : 16 bits
Compression mode : Lossy
Stream size : 323 MiB (1%)
Title : AVO Карповский
Language : Russian
Service kind : Complete Main
Default : No
Forced : No

Audio #9
ID : 10
Format : AC-3
Format/Info : Audio Coding 3
Commercial name : Dolby Digital
Codec ID : A_AC3
Duration : 1 h 40 min
Bit rate mode : Constant
Bit rate : 640 kb/s
Channel(s) : 6 channels
Channel layout : L R C LFE Ls Rs
Sampling rate : 48.0 kHz
Frame rate : 31.250 FPS (1536 SPF)
Bit depth : 16 bits
Compression mode : Lossy
Stream size : 462 MiB (1%)
Title : DUB Blu-Ray CEE
Language : Russian
Service kind : Complete Main
Default : No
Forced : No

Audio #10
ID : 11
Format : AC-3
Format/Info : Audio Coding 3
Commercial name : Dolby Digital
Codec ID : A_AC3
Duration : 1 h 40 min
Bit rate mode : Constant
Bit rate : 640 kb/s
Channel(s) : 6 channels
Channel layout : L R C LFE Ls Rs
Sampling rate : 48.0 kHz
Frame rate : 31.250 FPS (1536 SPF)
Bit depth : 16 bits
Compression mode : Lossy
Stream size : 462 MiB (1%)
Title : DUB Blu-Ray CEE
Language : Ukrainian
Service kind : Complete Main
Default : No
Forced : No

Text
ID : 12
Format : PGS
Muxing mode : zlib
Codec ID : S_HDMV/PGS
Codec ID/Info : Picture based subtitle format used on BDs/HD-DVDs
Duration : 1 h 32 min
Bit rate : 44.8 kb/s
Count of elements : 3150
Stream size : 29.7 MiB (0%)
Title : English (SDH)
Language : English
Default : No
Forced : No

Menu
00:00:00.000 : en:New Parents
00:04:18.716 : en:Main Titles
00:05:35.668 : en:First Day of School
00:11:17.802 : en:Field Trip
00:12:16.235 : en:The Drop Off
00:14:08.556 : en:Nemo Lost
00:16:29.029 : en:Meeting Dory
00:18:50.337 : en:Sharks
00:25:31.780 : en:The Tank Gang
00:30:54.227 : en:The Abyss
00:33:01.646 : en:Angler Fish
00:36:11.836 : en:Nemo's Initiation
00:40:19.166 : en:Fish Impressions
00:44:58.278 : en:Jellyfish
00:48:12.180 : en:The Filter
00:51:28.418 : en:Sea Turtles
00:56:07.030 : en:News Travels
01:00:55.610 : en:Off Ramp
01:05:20.666 : en:Dory Speaks Whale
01:07:02.101 : en:Algae
01:08:30.147 : en:Inside The Whale
01:13:19.103 : en:Sydney Harbour
01:14:15.117 : en:The Aquascum
01:16:00.097 : en:Pelicans
01:18:41.299 : en:Darla!
01:21:57.621 : en:Goodbye Dory
01:24:29.481 : en:Nemo And Dory
01:26:54.334 : en:Fishing Net
01:29:26.611 : en:Reunion
01:30:51.362 : en:Back On The Reef
01:32:42.932 : en:Tank Escape
01:33:24.265 : en:End Credits

piratbit.pw



Скачать В поисках Немо через торрент http://img11.lostpic.net/2018/11/08/8e15ae6f772582f51aeba7406f1a3cff.png Скачать фильм В поисках Немо через торрент бесплантно в хорошем качестве Описание: Многое известно нам из жизни мам-одиночек. А как быть с папами?... Они тоже умеют любить своих единственных сыновей! И наш герой ... 10 10 3
Торрент: Зарегистрирован [2019-09-07 15:37] · скачан: 14 раз
Статус: √ проверено
Размер: 51.78 GB
Как cкачать? Как скачать В поисках Немо через торрент | qTorrent

28-11-2019 20:33  

Отключить всю рекламу на сайте

    Дорогой пользователь! Огромная просьба, поблагодарите релизера, оцените раздачу и оставьте свои комментарий, если Вы скачали В поисках Немо через торрент бесплатно! Внесите свою лепту в развитие PiratBit!
    Комментировать посты могут только пользователи прошедшие не сложную регистрацию
    Показать сообщения:    

    В поисках Немо через торрент
    Скачать бесплатно В поисках Немо
    В поисках Немо скачать торрент
    В поисках Немо смотреть онлайн
    Cкачать фильм В поисках Немо бесплатно
    В поисках Немо скачать торрент в хорошем качестве
    В поисках Немо смотреть онлайн бесплатно в хорошем качестве


    Вы не можете начинать темы
    Вы не можете отвечать на сообщения
    Вы не можете редактировать свои сообщения
    Вы не можете удалять свои сообщения
    Вы не можете голосовать в опросах
    Вы не можете прикреплять файлы к сообщениям
    Вы можете скачивать файлы