Marvel's Avengers Deluxe Edition (супер цена) 159р. Внимание количество ограничено!!!

2 сезон

iTunes

iTunes

1

iTunes

iTunes

iTunes

WEBRip

iTunes

30
pack

Новость дня

ВАЖНО

!!Акция!!

Alien_RageХит недели

RePack

Horizon Zero Dawn

ИГРА 18+

pack

RePack

jed

!!Акция!!

Alien_Rage

RePack

fifa19

RePack

Assassins Creed: Odyssey

RePack

NEED FOR SPEED™ PAYBACK

4 сезон

9 сезон

Бесстыжие 9 сезон

Все сериалы

все сериалы на PB.wtf

RePack

FAR CRY 5
  

Тайная жизнь домашних животных 2 / The Secret Life of Pets 2 (Крис Рено, Джонатан дель Валь) [2019, мультфильм, комедия, приключения, семейный, UHD BDRemux 2160p] [Dolby Vision TV] DUB [iTunes] piratbit.pw

Тайная жизнь домашних животных 2 через торрент piratbit.pw

Размер: 46 GB | Добавлен: 1 год назад | Торрент скачан:17 раз
Скачать  

05-09-2019 12:05 Тайная жизнь домашних животных 2 Скачать торрент  

Тайная жизнь домашних животных 2
The Secret Life of Pets 2
«Обхохочешься»
Страна: США, Франция, Япония
Жанр: мультфильм, комедия, приключения, семейный
Продолжительность: 01:26:06
Год выпуска: 2019
Перевод: Дублированный | iTunes
Субтитры: Русские (Full), английские

Режиссёр: Крис Рено / Chris Renaud, Джонатан дель Валь / Jonathan del Val

rating

В ролях: Пэттон Освальт, Кевин Харт, Харрисон Форд, Эрик Стоунстрит, Дженни Слейт, Тиффани Хэддиш, Лэйк Белл, Дэна Карви, Бобби Мойнахан, Хэннибал Бёресс

Описание: Почему человек так долго спит утром? Чем вкусно пахнет? Дай мне, дай, дай, дай! Как заставить человека чесать за ушком весь день? Ой, что это? Ааай, опять мой хвост! Где взять еще вкусняшек? О, мячик-мячик-мячик! Узнайте, что действительно беспокоит ваших животных.

Качество: UHD BDRemux 2160p | Dolby Vision TV
Формат: MP4

Видео: HEVC HDR, 59.4 Mбит/с, 3840x2160
Аудио#1: 48 kHz, AC3, 5.1, 384 Kbps | iTunes | RUS |
Аудио#2: 48 kHz, PCM, 7.1, 9216 Kbps | Оригинал | ENG |
Данный вид релизов (контейнер MP4) предназначен для встроенного в ТВ (соответственно, с поддержкой DV) плеер.
Т.Е. Можно использовать как USB flash/HDD, так и DLNA / Plex - подобные сервисы/программы. дополнительный-внешний плеер не обязателен.

Внимание!
На моделях LG 2016 возможны сюрпризы "через раз", 2017-2018 должно идти без сюрпризов )
скриншот  скриншот  скриншот  скриншот  скриншот  

General
Format : MPEG-4
Format profile : Base Media / Version 2
Codec ID : mp42 (isom/mp42/dby1)
File size : 46.0 GiB
Duration : 1 h 26 min
Overall bit rate mode : Variable
Overall bit rate : 76.5 Mb/s

Video #1
ID : 1
Format : HEVC
Format/Info : High Efficiency Video Coding
Format profile : Main 10@L5.1@High
HDR format : SMPTE ST 2094 App 4, Version 1, HDR10+ Profile B compatible
Codec ID : hev1
Codec ID/Info : High Efficiency Video Coding
Duration : 1 h 26 min
Bit rate : 59.4 Mb/s
Width : 3 840 pixels
Height : 2 160 pixels
Display aspect ratio : 16:9
Frame rate mode : Constant
Frame rate : 23.976 (24000/1001) FPS
Color space : YUV
Chroma subsampling : 4:2:0 (Type 2)
Bit depth : 10 bits
Bits/(Pixel*Frame) : 0.299
Stream size : 35.7 GiB (78%)
Default : No
Color range : Limited
Color primaries : BT.2020
Transfer characteristics : PQ
Matrix coefficients : BT.2020 non-constant
Mastering display color primaries : Display P3
Mastering display luminance : min: 0.0001 cd/m2, max: 1000 cd/m2
Maximum Content Light Level : 1000 cd/m2
Maximum Frame-Average Light Level : 412 cd/m2
Codec configuration box : hvcC

Video #2
ID : 2
Format : HEVC
Format/Info : High Efficiency Video Coding
Format profile : Main 10@L5.1@High
HDR format : Dolby Vision, Version 1.0, dvhe.07.06, EL+RPU / SMPTE ST 2086, HDR10 compatible
Codec ID : dvhe
Codec ID/Info : High Efficiency Video Coding with Dolby Vision
Duration : 1 h 26 min
Bit rate : 7 470 kb/s
Width : 1 920 pixels
Height : 1 080 pixels
Display aspect ratio : 16:9
Frame rate mode : Constant
Frame rate : 23.976 (24000/1001) FPS
Color space : YUV
Chroma subsampling : 4:2:0 (Type 2)
Bit depth : 10 bits
Bits/(Pixel*Frame) : 0.150
Stream size : 4.49 GiB (10%)
Default : No
Encoded date : UTC 2019-09-04 11:06:31
Tagged date : UTC 2019-09-04 22:02:45
Color range : Limited
Color primaries : BT.2020
Transfer characteristics : PQ
Matrix coefficients : BT.2020 non-constant
Mastering display color primaries : Display P3
Mastering display luminance : min: 0.0001 cd/m2, max: 1000 cd/m2
Codec configuration box : hvcC+dvcC

Audio #1
ID : 3
Format : AC-3
Format/Info : Audio Coding 3
Commercial name : Dolby Digital
Codec ID : ac-3
Duration : 1 h 26 min
Source duration : 1 h 26 min
Bit rate mode : Constant
Bit rate : 384 kb/s
Maximum bit rate : 406 kb/s
Channel(s) : 6 channels
Channel layout : L R C LFE Ls Rs
Sampling rate : 48.0 kHz
Frame rate : 31.250 FPS (1536 SPF)
Bit depth : 16 bits
Compression mode : Lossy
Stream size : 236 MiB (1%)
Source stream size : 236 MiB (1%)
Title : iTunes
Language : Russian
Service kind : Complete Main

Audio #2
ID : 4
Format : PCM
Format settings : Big / Signed
Codec ID : in24
Duration : 1 h 26 min
Bit rate mode : Constant
Bit rate : 9 216 kb/s
Channel(s) : 8 channels
Channel layout : L R C LFE Ls R Rls Rb
Sampling rate : 48.0 kHz
Bit depth : 24 bits
Stream size : 5.54 GiB (12%)
Title : PCM
Language : English
Default : No
Alternate group : 1

Text #1
ID : 5
Format : VobSub
Codec ID : mp4s-E0
Codec ID/Info : The same subtitle format used on DVDs
Duration : 1 h 26 min
Bit rate mode : Variable
Bit rate : 9 008 b/s
Maximum bit rate : 115 kb/s
Stream size : 5.55 MiB (0%)
Title : Russian [Full]
Language : Russian
Forced : No

Text #2
ID : 6
Format : VobSub
Codec ID : mp4s-E0
Codec ID/Info : The same subtitle format used on DVDs
Duration : 1 h 25 min
Bit rate mode : Variable
Bit rate : 10.5 kb/s
Maximum bit rate : 144 kb/s
Stream size : 6.48 MiB (0%)
Title : English [Full]
Language : English
Forced : No

piratbit.pw



Скачать Тайная жизнь домашних животных 2 через торрент https://a.radikal.ru/a15/1804/77/25bd8085c8d9.png Скачать фильм Тайная жизнь домашних животных 2 через торрент бесплантно в хорошем качестве Описание: Почему человек так долго спит утром? Чем вкусно пахнет? Дай мне, дай, дай, дай! Как заставить человека чесать за ушком весь день? ... 10 10 2
Торрент: Зарегистрирован [2019-09-05 12:05] · скачан: 17 раз
Статус: √ проверено
Размер: 46 GB
Как cкачать? Как скачать Тайная жизнь домашних животных 2 через торрент | qTorrent

% Раздел Тема Автор DL S | L
Ultra HD (UHD: 2K, 4K, 8K) [ 16.92 GB ] Тайная жизнь домашних животных 2 / The Secret Life of Pets 2 [2019 мультфильм UHD BDRip 2160p] [SDR] DUB [] +MVO [HDRezka Studio] bober100 Скачать
3 | 0
Ultra HD (UHD: 2K, 4K, 8K) [ 8.58 GB ] Тайная жизнь домашних животных 2 / The Secret Life of Pets 2 [2019 мультфильм UHD BDRip 2160p] DUB [] +MVO [HDRezka Studio] bober100 Скачать
1 | 0
3D Мультфильмы [ 6.78 GB ] Тайная жизнь домашних животных 2 3Д / The Secret Life of Pets 2 3D [2019 мультфильм BDRip 1080p] [Half OverUnder] DUB [] bober100 Скачать
3 | 0
Зарубежные Мультфильмы (BDRip 1080p, 720p, Blu-ray, BD-Remux) [ 26.16 GB ] Тайная жизнь домашних животных 2 / The Secret Life of Pets 2 [2019 мультфильм BD Remux 1080p] [2D/3D] bober100 Скачать
1 | 0
3D Мультфильмы [ 10.99 GB ] Тайная жизнь домашних животных 2 в 3Д / The Secret Life of Pets 2 3D [2019 мультфильм BDRip 1080p] OverUnder / Вертикальная стереопара serega768 Скачать
1 | 0
Ultra HD (UHD: 2K, 4K, 8K) [ 45.45 GB ] Тайная жизнь домашних животных 2 / The Secret Life of Pets 2 [2019 мультфильм UHD BDRemux 2160p] [Dolby Vision] DUB bober100 Скачать
1 | 0
Иностранные мультфильмы [ 745 MB ] Тайная жизнь домашних животных 2 / The Secret Life of Pets 2 [2019 Мультфильм HDRip] [ ] - ExKinoRay surikmas Скачать
1 | 0

28-11-2019 20:33  

Отключить всю рекламу на сайте

    Дорогой пользователь! Огромная просьба, поблагодарите релизера, оцените раздачу и оставьте свои комментарий, если Вы скачали Тайная жизнь домашних животных 2 через торрент бесплатно! Внесите свою лепту в развитие PiratBit!
    Комментировать посты могут только пользователи прошедшие не сложную регистрацию
    Показать сообщения:    

    Тайная жизнь домашних животных 2 через торрент
    Скачать бесплатно Тайная жизнь домашних животных 2
    Тайная жизнь домашних животных 2 скачать торрент
    Тайная жизнь домашних животных 2 смотреть онлайн
    Cкачать фильм Тайная жизнь домашних животных 2 бесплатно
    Тайная жизнь домашних животных 2 скачать торрент в хорошем качестве
    Тайная жизнь домашних животных 2 смотреть онлайн бесплатно в хорошем качестве


    Вы не можете начинать темы
    Вы не можете отвечать на сообщения
    Вы не можете редактировать свои сообщения
    Вы не можете удалять свои сообщения
    Вы не можете голосовать в опросах
    Вы не можете прикреплять файлы к сообщениям
    Вы можете скачивать файлы