Marvel's Avengers Deluxe Edition (супер цена) 159р. Внимание количество ограничено!!!

2 сезон

iTunes

iTunes

1

iTunes

iTunes

iTunes

WEBRip

iTunes

30
pack

Новость дня

ВАЖНО

!!Акция!!

Alien_RageХит недели

RePack

Horizon Zero Dawn

ИГРА 18+

pack

RePack

jed

!!Акция!!

Alien_Rage

RePack

fifa19

RePack

Assassins Creed: Odyssey

RePack

NEED FOR SPEED™ PAYBACK

4 сезон

9 сезон

Бесстыжие 9 сезон

Все сериалы

все сериалы на PB.wtf

RePack

FAR CRY 5
  

Я купил папу (Илья Фрэз) [1962, СССР, комедия, семейный, детский, SATRip от AVP Studio] piratbit.pw

Я купил папу через торрент piratbit.pw

Размер: 744 MB | Добавлен: 1 год назад | Торрент скачан:12 раз
Скачать  

05-09-2019 08:31 Я купил папу Скачать торрент  

Я купил папу
Страна: СССР
Производство: Киностудия им. Горького

Жанр: комедия, семейный, детский
Год выпуска: 1963
Продолжительность: 01:16:39

Перевод: Не требуется
Cубтитры: нет
Оригинальная аудиодорожка: русский

Режиссер: Илья Фрэз

В ролях:
Алеша Загорский, Ольга Лысенко, Владимир Трещалов, Светлана Агеева, Марина Гаврилко, Анатолий Касапов, Зинаида Нарышкина, Геннадий Фролов...
Об актёрах подробней

Описание:
Димке пять лет, и у него нет отца. Однажды мальчик решил, что деньги, отложенные на покупку папы, мама просто потратила на мороженое. Он решил сам исправить положение — и отправился в универмаг, в витрине которого однажды видел очень красивого «дядю»…

Исходник: DVB
Качество видео: SATRip
Формат видео: AVI

Видео: 704x336 (2,095:1), 25,000 кадров/сек, XviD ~ 1156 kbps avg, 0.195 bit/pixel
Аудио: 48 kHz, Dolby Digital AC3 2.0, 192 kbps

Раздача от:
Общее
Полное имя : YA.kupil.papu.1963.SATRip_[New-team]_by_AVP_Studio.avi
Формат : AVI
Формат/Информация : Audio Video Interleave
Размер файла : 744 Мбайт
Продолжительность : 1 ч. 16 м.
Общий поток : 1357 Кбит/сек
Программа кодирования : VirtualDubMod 1.5.10.3 | www.virtualdub-fr.org || (build 2550/release)
Библиотека кодирования : VirtualDubMod build 2550/release

Видео
Идентификатор : 0
Формат : MPEG-4 Visual
Профиль формата : Advanced Simple@L5
Настройки формата : BVOP1 / Custom Matrix
Параметр BVOP формата : 1
Параметр QPel формата : Нет
Параметр GMC формата : Без точки перехода
Параметр матрицы формата : Выборочная
Идентификатор кодека : XVID
Идентификатор кодека/Подсказка : XviD
Продолжительность : 1 ч. 16 м.
Битрейт : 1156 Кбит/сек
Ширина : 704 пикселя
Высота : 336 пикселей
Соотношение сторон : 2,095
Частота кадров : 25,000 кадров/сек
Цветовое пространство : YUV
Субдискретизация насыщенности : 4:2:0
Битовая глубина : 8 бит
Тип развёртки : Прогрессивная
Метод сжатия : С потерями
Бит/(Пиксели*Кадры) : 0.195
Размер потока : 634 Мбайт (85%)
Библиотека кодирования : XviD 73

Аудио
Идентификатор : 1
Формат : AC-3
Формат/Информация : Audio Coding 3
Коммерческое название : Dolby Digital
Идентификатор кодека : 2000
Продолжительность : 1 ч. 16 м.
Вид битрейта : Постоянный
Битрейт : 192 Кбит/сек
Каналы : 2 канала
ChannelLayout : L R
Частота : 48,0 КГц
Частота кадров : 31,250 кадров/сек (1536 SPF)
Битовая глубина : 16 бит
Метод сжатия : С потерями
Размер потока : 105 Мбайт (14%)
Выравнивание : Разделение по промежуткам
Продолжительность промежутка : 40 мс. (1,00 видеокадр)
Время предзагрузки промежутка : 500 мс.
piratbit.pw



Скачать Я купил папу через торрент http://picplus.ru/img/1909/05/5d482e73.png Скачать фильм Я купил папу через торрент бесплантно в хорошем качестве Описание:Димке пять лет, и у него нет отца. Однажды мальчик решил, что деньги, отложенные на покупку папы, мама просто потратила на ... 10 10 1
Торрент: Зарегистрирован [2019-09-05 08:31] · скачан: 12 раз
Статус: √ проверено
Размер: 744 MB
Как cкачать? Как скачать Я купил папу через торрент | qTorrent

% Раздел Тема Автор DL S | L
Детские отечественные фильмы [ 744 MB ] Я купил папу [1962 СССР детский SATRip-AVC от AVP Studio] AVP Studio Скачать
3 | 0

28-11-2019 20:33  

Отключить всю рекламу на сайте

05-09-2019 11:24 Я купил папу Скачать торрент  

Топик был перенесен из форума Кино СССР в форум Детские отечественные фильмы


bober100piratbit.pw



    Дорогой пользователь! Огромная просьба, поблагодарите релизера, оцените раздачу и оставьте свои комментарий, если Вы скачали Я купил папу через торрент бесплатно! Внесите свою лепту в развитие PiratBit!
    Комментировать посты могут только пользователи прошедшие не сложную регистрацию
    Показать сообщения:    

    Я купил папу через торрент
    Скачать бесплатно Я купил папу
    Я купил папу скачать торрент
    Я купил папу смотреть онлайн
    Cкачать фильм Я купил папу бесплатно
    Я купил папу скачать торрент в хорошем качестве
    Я купил папу смотреть онлайн бесплатно в хорошем качестве


    Вы не можете начинать темы
    Вы не можете отвечать на сообщения
    Вы не можете редактировать свои сообщения
    Вы не можете удалять свои сообщения
    Вы не можете голосовать в опросах
    Вы не можете прикреплять файлы к сообщениям
    Вы можете скачивать файлы