Ссылка на приватное зеркало нашего сайта всего за 1$. Внимание количество ограничено!!!

2 сезон

iTunes

iTunes

1

iTunes

iTunes

iTunes

WEBRip

iTunes

30
pack

Вам бонус

ВАЖНО

!!Акция!!

Alien_RageХит недели

RePack

Horizon Zero Dawn

ИГРА 18+

pack

RePack

jed

!!Акция!!

Alien_Rage

RePack

fifa19

RePack

Assassins Creed: Odyssey

RePack

NEED FOR SPEED™ PAYBACK

4 сезон

9 сезон

Бесстыжие 9 сезон

Все сериалы

все сериалы на PB.wtf

RePack

FAR CRY 5
  

Шурка выбирает море (Яков Хромченко) [1963, СССР, детский, приключения, SATRip от AVP Studio] piratbit.pw

Шурка выбирает море через торрент piratbit.pw

Раздают: 2 [ 0 KB/s ]
Размер: 745 MB | Добавлен: 1 год назад | Торрент скачан:12 раз
Скачать  

03-09-2019 08:53 Шурка выбирает море Скачать торрент  

Шурка выбирает море
Страна: СССР
Производство: Одесская киностудия

Жанр: детский, приключения
Год выпуска: 1963
Продолжительность: 01:09:40

Перевод: Не требуется
Cубтитры: нет
Оригинальная аудиодорожка: русский

Режиссер: Яков Хромченко

В ролях:
Сергей Никоненко, Нина Иванова, Александр Бениаминов, Владимир Гуляев, Виктор Уральский, Вадим Захарченко, В. Панафидин, Константин Леонович...
Об актёрах подробней

Описание:
Шурка — полон еще детских иллюзий и ложных романтических представлений о море и жизни моряков, о дальних рейсах и больших кораблях. С этими иллюзиями он начинает свой рейс.

Исходник: DVB
Качество видео: SATRip
Формат видео: AVI

Видео: 688x512 (4:3), 25,000 кадров/сек, XviD ~ 1293 kbps avg, 0.147 bit/pixel
Аудио: 48 kHz, Dolby Digital AC3 2.0, 192 kbps

Раздача от:
Общее
Полное имя : SHurka.vybiraet.more.1963.SATRip_[New-team]_by_AVP_Studio.avi
Формат : AVI
Формат/Информация : Audio Video Interleave
Размер файла : 745 Мбайт
Продолжительность : 1 ч. 9 м.
Общий поток : 1495 Кбит/сек
Программа кодирования : VirtualDubMod 1.5.10.3 | www.virtualdub-fr.org || (build 2550/release)
Библиотека кодирования : VirtualDubMod build 2550/release

Видео
Идентификатор : 0
Формат : MPEG-4 Visual
Профиль формата : Advanced Simple@L5
Настройки формата : BVOP1 / Custom Matrix
Параметр BVOP формата : 1
Параметр QPel формата : Нет
Параметр GMC формата : Без точки перехода
Параметр матрицы формата : Выборочная
Идентификатор кодека : XVID
Идентификатор кодека/Подсказка : XviD
Продолжительность : 1 ч. 9 м.
Битрейт : 1293 Кбит/сек
Ширина : 688 пикселей
Высота : 512 пикселей
Соотношение сторон : 4:3
Частота кадров : 25,000 кадров/сек
Цветовое пространство : YUV
Субдискретизация насыщенности : 4:2:0
Битовая глубина : 8 бит
Тип развёртки : Прогрессивная
Метод сжатия : С потерями
Бит/(Пиксели*Кадры) : 0.147
Размер потока : 644 Мбайт (87%)
Библиотека кодирования : XviD 73

Аудио
Идентификатор : 1
Формат : AC-3
Формат/Информация : Audio Coding 3
Коммерческое название : Dolby Digital
Идентификатор кодека : 2000
Продолжительность : 1 ч. 9 м.
Вид битрейта : Постоянный
Битрейт : 192 Кбит/сек
Каналы : 2 канала
ChannelLayout : L R
Частота : 48,0 КГц
Частота кадров : 31,250 кадров/сек (1536 SPF)
Битовая глубина : 16 бит
Метод сжатия : С потерями
Размер потока : 95,7 Мбайт (13%)
Выравнивание : Разделение по промежуткам
Продолжительность промежутка : 40 мс. (1,00 видеокадр)
Время предзагрузки промежутка : 500 мс.
piratbit.pw



Скачать Шурка выбирает море через торрент http://a.radikal.ru/a14/1912/d2/1015fa74fef3.png Скачать фильм Шурка выбирает море через торрент бесплантно в хорошем качестве Описание:Шурка — полон еще детских иллюзий и ложных романтических представлений о море и жизни моряков, о дальних рейсах и больших ... 5 10 1
Торрент: Зарегистрирован [2019-09-03 08:53] · скачан: 12 раз
Статус: √ проверено
Размер: 745 MB
Как cкачать? Как скачать Шурка выбирает море через торрент | qTorrent

% Раздел Тема Автор DL S | L
Детские отечественные фильмы [ 744 MB ] Шурка выбирает море [1963 СССР детский SATRip-AVC от AVP Studio] AVP Studio Скачать
1 | 0

28-11-2019 20:33  

Отключить всю рекламу на сайте

    Дорогой пользователь! Огромная просьба, поблагодарите релизера, оцените раздачу и оставьте свои комментарий, если Вы скачали Шурка выбирает море через торрент бесплатно! Внесите свою лепту в развитие PiratBit!
    Комментировать посты могут только пользователи прошедшие не сложную регистрацию
    Показать сообщения:    

    Шурка выбирает море через торрент
    Скачать бесплатно Шурка выбирает море
    Шурка выбирает море скачать торрент
    Шурка выбирает море смотреть онлайн
    Cкачать фильм Шурка выбирает море бесплатно
    Шурка выбирает море скачать торрент в хорошем качестве
    Шурка выбирает море смотреть онлайн бесплатно в хорошем качестве


    Вы не можете начинать темы
    Вы не можете отвечать на сообщения
    Вы не можете редактировать свои сообщения
    Вы не можете удалять свои сообщения
    Вы не можете голосовать в опросах
    Вы не можете прикреплять файлы к сообщениям
    Вы можете скачивать файлы