Ссылка на приватное зеркало всего за 1$. Внимание количество ограничено!!!

iTunes

1+1

iTunes

мы

MV0

1

WEB-DLRip

Джокер

Пифагор

Ведьмак / The Witcher сериал

iTunes

ПШазам

iTunes

Оно 2

iTunes

30
pack

Вам бонус

ВАЖНО

!!Акция!!

Alien_RageХит недели

RePack

Resident Evil 21

ИГРА 18+

pack

RePack

jed

!!Акция!!

Alien_Rage

RePack

fifa19

RePack

Assassins Creed: Odyssey

RePack

NEED FOR SPEED™ PAYBACK

4 сезон

9 сезон

Бесстыжие 9 сезон

Все сериалы

все сериалы на PB.wtf

RePack

FAR CRY 5
  

Эбигейл (Александр Богуславский) [2019, приключения, фэнтези, семейный, WEB-DL 1080p] [iTunes] piratbit.pw

Эбигейл через торрент piratbit.pw

Раздают: 8 [ 0 KB/s ]
Размер: 3.64 GB | Добавлен: 4 мес. 19 д. назад | Торрент скачан:533 раза
Скачать  

02-09-2019 03:30 Эбигейл Скачать торрент  

Эбигейл
Год выпуска: 2019
Страна: Россия
Жанр: приключения, фэнтези, семейный
Продолжительность: 01:46:16
Перевод: Не требуется | iTunes
Субтитры: отсутствуют

Режиссер: Александр Богуславский

rating

В ролях: Тинатин Далакишвили, Эдди Марсан, Артем Ткаченко, Равшана Куркова, Риналь Мухаметов, Глеб Бочков, Марта Тимофеева, Никита Тарасов, Ксения Кутепова, Петар Зекавица

Описание: Молодая девушка Эбигейл живет в городе, границы которого закрыли много лет назад из-за эпидемии загадочной болезни. Отец Эбби был одним из заболевших - и его забрали, когда ей было шесть лет. Пойдя наперекор властям, чтобы разыскать отца, Эбби узнает о том, что ее город на самом деле полон магии. И в ней самой пробуждаются необыкновенные магические способности...

Качество: WEB-DL 1080p
Формат: MKV

Видео: MPEG-4 AVC, 4426 Кбит/с, 1912x796
Аудио: русский, AC3, 5.1 ch, 48 kHz, 384 kbps | iTunes
скриншот  скриншот  скриншот  скриншот  

Общее
Уникальный идентификатор : 194523297687141235284738025687409105125 (0x9257D30B336C70459115C10B69F218E5)
Полное имя : D:\Ebigeil.WEB-DL.1080p.ELEKTRI4KA.UNIONGANG.mkv
Формат : Matroska
Версия формата : Version 2
Размер файла : 3,64 Гбайт
Продолжительность : 1 ч. 46 м.
Общий поток : 4908 Кбит/сек
Название фильма : Ebigeil..ELEKTRI4KA.UNIONGANG
Дата кодирования : UTC 2019-10-02 18:26:00
Программа кодирования : mkvmerge v7.8.0 ('River Man') 32bit built on Apr 3 2015 12:11:22
Библиотека кодирования : libebml v1.3.1 + libmatroska v1.4.2

Видео
Идентификатор : 2
Формат : AVC
Формат/Информация : Advanced Video Codec
Профиль формата : High@L4
Параметр CABAC формата : Да
Параметр RefFrames формата : 5 кадров
Идентификатор кодека : V_MPEG4/ISO/AVC
Продолжительность : 1 ч. 46 м.
Битрейт : 4426 Кбит/сек
Ширина : 1912 пикселей
Высота : 796 пикселей
Соотношение сторон : 2,40:1
Режим частоты кадров : Постоянный
Частота кадров : 23,976 (24000/1001) кадра/сек
Цветовое пространство : YUV
Субдискретизация насыщенности : 4:2:0
Битовая глубина : 8 бит
Тип развёртки : Прогрессивная
Бит/(Пиксели*Кадры) : 0.121
Размер потока : 3,29 Гбайт (90%)
Язык : English
Default : Да
Forced : Нет
Цветовой диапазон : Limited
Основные цвета : BT.709
Характеристики трансфера : BT.709
Коэффициенты матрицы : BT.709

Аудио
Идентификатор : 1
Формат : AC-3
Формат/Информация : Audio Coding 3
Расширение режима : CM (complete main)
Параметр Endianness формата : Big
Идентификатор кодека : A_AC3
Продолжительность : 1 ч. 46 м.
Вид битрейта : Постоянный
Битрейт : 384 Кбит/сек
Каналы : 6 каналов
Расположение каналов : Front: L C R, Side: L R, LFE
Частота : 48,0 КГц
Частота кадров : 31,250 кадров/сек (1536 spf)
Метод сжатия : С потерями
Размер потока : 292 Мбайт (8%)
Язык : Russian
Default : Да
Forced : Нет

Меню
00:00:00.000 : en:1
00:03:49.000 : en:2
00:13:26.000 : en:3
00:22:22.000 : en:4
00:30:47.000 : en:5
00:39:40.000 : en:6
00:50:22.000 : en:7
01:00:15.000 : en:8
01:10:39.000 : en:9
01:21:18.000 : en:10
01:30:58.000 : en:11
01:42:38.000 : en:12

piratbit.pw



Скачать Эбигейл через торрент https://d.radikal.ru/d18/1910/60/5d4b79d53c7f.png Скачать фильм Эбигейл через торрент бесплантно в хорошем качестве Описание: Молодая девушка Эбигейл живет в городе, границы которого закрыли много лет назад из-за эпидемии загадочной болезни. Отец Эбби был ... 9.8 10 18
Info! Золотая раздача, скачанное не засчитывается.
Торрент: Зарегистрирован [2019-10-02 19:05] · скачан: 533 раз
Статус: √ проверено
Размер: 3.64 GB
Как cкачать? Как скачать Эбигейл через торрент | qTorrent

% Раздел Тема Автор DL S | L
Наши новые фильмы 2018-2019 [ 746 MB ] Эбигейл [2019 HDRip] bober100 Скачать
5 | 0
Наши фильмы (HD, WEB-DL 720p, 1080p) [ 8.06 GB ] Эбигейл [2019 BDRip 1080p] bober100 Скачать
2 | 0
Наши фильмы (HD, WEB-DL 720p, 1080p) [ 4.5 GB ] Эбигейл [2019 BDRip 720p] bober100 Скачать
6 | 0
Наши фильмы (Blu-ray, BD-Remux, HDDVD) [ 19.76 GB ] Эбигейл [2019 BD Remux 1080i] bober100 Скачать
2 | 0
Наши фильмы (HD, WEB-DL 720p, 1080p) [ 3.28 GB ] Эбигейл [2019 WEB-DL 720p] bober100 Скачать
4 | 0
Наши новые фильмы 2018-2019 [ 1.59 GB ] Эбигейл [2019 WEB-DLRip-AVC] bober100 Скачать
7 | 0
Наши новые фильмы 2018-2019 [ 1.46 GB ] Эбигейл [2019 BDRip] bober100 Скачать
7 | 0


Последний раз редактировалось: bober100 (2019-10-02 20:05), всего редактировалось 4 раз(а)

28-11-2019 20:33  

Отключить всю рекламу на сайте

02-09-2019 06:56 Эбигейл Скачать торрент  

Фильм от КиноДанс. Ох чувствую Бэдкомедиан надругается над ним в полную силу. Пора запасаться попкорном и ждать обзораpiratbit.pw



05-09-2019 02:42 Эбигейл Скачать торрент  

BrodusClay111 писал(а):

Фильм от КиноДанс. Ох чувствую Бэдкомедиан надругается над ним в полную силу. Пора запасаться попкорном и ждать обзора

да брось, за исключением неких моментов, в целом фильм вышел довольно сносным, ожидал гораздо худшей фигни.piratbit.pw



    Дорогой пользователь! Огромная просьба, поблагодарите релизера, оцените раздачу и оставьте свои комментарий, если Вы скачали Эбигейл через торрент бесплатно! Внесите свою лепту в развитие PiratBit!
    Комментировать посты могут только пользователи прошедшие не сложную регистрацию
    Показать сообщения:    

    Эбигейл через торрент
    Скачать бесплатно Эбигейл
    Эбигейл скачать торрент
    Эбигейл смотреть онлайн
    Cкачать фильм Эбигейл бесплатно
    Эбигейл скачать торрент в хорошем качестве
    Эбигейл смотреть онлайн бесплатно в хорошем качестве


    Вы не можете начинать темы
    Вы не можете отвечать на сообщения
    Вы не можете редактировать свои сообщения
    Вы не можете удалять свои сообщения
    Вы не можете голосовать в опросах
    Вы не можете прикреплять файлы к сообщениям
    Вы можете скачивать файлы