MEGA SALE -50% FORZA HORIZON 4 ULTIMATE+ВСЕ DLC+ОНЛАЙН всего за 599р. 299 руб. (супер цена). Внимание количество ограничено!!!

iTunes

1+1

iTunes

мы

iTunes

1

iTunes

Чернобыль

iTunes

Ральф против интернета

Лицензия

ПШазам

Лицензия

Игра престолов

Лицензия

30
pack

ВАЖНО

!!Акция!!

Alien_RageХит недели

RePack

Resident Evil 21

ИГРА 18+

pack

RePack

Metro:Exodus

!!Акция!!

Alien_Rage

RePack

fifa19

RePack

Assassins Creed: Odyssey

RePack

NEED FOR SPEED™ PAYBACK

3 сезон

9 сезон

Бесстыжие 9 сезон

Все сериалы

все сериалы на PB.wtf

RePack

FAR CRY 5
Ребята, катастрофически не хватает 7730р. для оплаты серверов за АВГУСТ (всвязи с блокировками трафик упал в 3 раза), 1-2р., выручайте.
  

Без гроша / Без денег / Голяк / Brassic / Сезон: 1 / Серии: 1-4 из 6 (Дэниэл О’Хара, Джон Райт) [2019, трагикомедия, HDTVRip 1080p] MVO [Ozz] piratbit.pw

Без гроша через торрент piratbit.pw

Раздают: 1 [ 93 KB/s ] Качают: 2 [ 2 MB/s ]
Размер: 7.06 GB | Добавлен: 1 д. 19 ч. назад | Торрент скачан:1 раз
Скачать  

30-08-2019 09:13 Без гроша Скачать торрент  

Brassic - First Season
Без гроша / Без денег / Голяк - Первый сезон
Год выхода: 2019
Страна: Великобритания
Жанр: трагикомедия
Продолжительность: ~ 00:43:00 мин
Перевод: Профессиональный (многоголосый закадровый) | Ozz
Субтитры: Russian (srt)

Режиссер: Дэниэл О’Хара, Джон Райт

В ролях: Дэмиен Молони, Джозеф Гилган, Мишель Кигэн, Аарон Хеффернан, Рут Шин, Tom Hanson, Райан Сэмпсон, Jude Riordan, Парт Такерар, Стив Эветс и др.

Описание: В основе трагикомедии – криминальные авантюры друзей из английского графства Ланкашир. При этом это не просто заурядный сериал про районных гангстеров, а вполне себе внятное высказывание на тему психогласности: у одного из друзей, например, биполярное расстройство, а другой страдает от созависимости. Ситком создал английский актер Джозеф Гилган, известный по «Это – Англия», "Проповеднику" и «Отбросам».
Над сценарием работал обладатель премии BAFTA Дэниэл Блоклхёрст («Обвиняемые»).

rating | Sample Роли озвучивают: | Иван Кузнецов, Алексей Никитин, Дмитрий Рыбин, Ирина Воронова и Алексей Серёгин |
Автор перевода: | Александр Шумилов |
Подготовлено: Ozz

Качество: HDTVRip 1080p
Формат: mkv
Видео кодек: x264
Аудио кодек: AC3

Видео: 1920x1080 at 25 fps, AVC, 5600 kbps avg, 0.054 b/pixel
Аудио #1: Russian 48.0 KHz, AC3 , 2 channels, 192 Kbps |Ozz|
Аудио #2: English 48.0 KHz, AC3 , 2 channels, 384 Kbps |Original|


Реклама: Присутствует звуковая (два раза в начале и конце по 10 сек.)

Присутствует ненормативная лексика!
Общее
Уникальный идентификатор                 : 237702091906980369226539837505114660514 (0xB2D3C1F650901AA585EB76E397B2DEA2)
Полное имя                               : D:\Brassic.S01.1080p.HDTVRip.Rus.Eng.Ozz\Brassic.S01E01.1080p.HDTVRip.Rus.Eng.Ozz.mkv
Формат                                   : Matroska
Версия формата                           : Version 4 / Version 2
Размер файла                             : 1,87 Гбайт
Продолжительность                        : 43 м. 14 с.
Общий поток                              : 6181 Кбит/сек
Дата кодирования                         : UTC 2019-08-29 13:02:27
Программа кодирования                    : mkvmerge v8.3.0 ('Over the Horizon') 64bit
Библиотека кодирования                   : libebml v1.3.1 + libmatroska v1.4.2

Видео
Идентификатор                            : 1
Формат                                   : AVC
Формат/Информация                        : Advanced Video Codec
Профиль формата                          : High@L4.1
Настройки формата                        : CABAC / 4 Ref Frames
Параметр CABAC формата                   : Да
Параметр RefFrames формата               : 4 кадра
Идентификатор кодека                     : V_MPEG4/ISO/AVC
Продолжительность                        : 43 м. 14 с.
Битрейт                                  : 5601 Кбит/сек
Ширина                                   : 1920 пикселей
Высота                                   : 1080 пикселей
Соотношение сторон                       : 16:9
Режим частоты кадров                     : Постоянный
Частота кадров                           : 50,000 кадров/сек
Цветовое пространство                    : YUV
Субдискретизация насыщенности            : 4:2:0
Битовая глубина                          : 8 бит
Тип развёртки                            : Прогрессивная
Бит/(Пиксели*Кадры)                      : 0.054
Размер потока                            : 1,69 Гбайт (91%)
Библиотека кодирования                   : x264 core 158 r2984 3759fcb
Настройки программы                      : cabac=1 / ref=4 / deblock=1:0:0 / analyse=0x3:0x113 / me=hex / subme=8 / psy=1 / psy_rd=1.00:0.00 / mixed_ref=1 / me_range=16 / chroma_me=1 / trellis=2 / 8x8dct=1 / cqm=0 / deadzone=21,11 / fast_pskip=1 / chroma_qp_offset=-2 / threads=18 / lookahead_threads=3 / sliced_threads=0 / nr=0 / decimate=1 / interlaced=0 / bluray_compat=0 / constrained_intra=0 / bframes=3 / b_pyramid=2 / b_adapt=1 / b_bias=0 / direct=3 / weightb=1 / open_gop=0 / weightp=2 / keyint=250 / keyint_min=25 / scenecut=40 / intra_refresh=0 / rc_lookahead=50 / rc=crf / mbtree=1 / crf=17.0 / qcomp=0.60 / qpmin=0 / qpmax=69 / qpstep=4 / ip_ratio=1.40 / aq=1:1.00
Default                                  : Да
Forced                                   : Нет
Цветовой диапазон                        : Full
Основные цвета                           : BT.709
Характеристики трансфера                 : BT.709
Коэффициенты матрицы                     : BT.709

Аудио #1
Идентификатор                            : 2
Формат                                   : AC-3
Формат/Информация                        : Audio Coding 3
Идентификатор кодека                     : A_AC3
Продолжительность                        : 43 м. 14 с.
Вид битрейта                             : Постоянный
Битрейт                                  : 192 Кбит/сек
Каналы                                   : 2 канала
Расположение каналов                     : Front: L R
Частота                                  : 48,0 КГц
Частота кадров                           : 31,250 кадров/сек (1536 SPF)
Битовая глубина                          : 16 бит
Метод сжатия                             : С потерями
Размер потока                            : 59,4 Мбайт (3%)
Заголовок                                : MVO Ozz-tv
Язык                                     : Russian
ServiceKind/String                       : Complete Main
Default                                  : Да
Forced                                   : Нет

Аудио #2
Идентификатор                            : 3
Формат                                   : AC-3
Формат/Информация                        : Audio Coding 3
Идентификатор кодека                     : A_AC3
Продолжительность                        : 43 м. 14 с.
Вид битрейта                             : Постоянный
Битрейт                                  : 384 Кбит/сек
Каналы                                   : 2 канала
Расположение каналов                     : Front: L R
Частота                                  : 48,0 КГц
Частота кадров                           : 31,250 кадров/сек (1536 SPF)
Битовая глубина                          : 16 бит
Метод сжатия                             : С потерями
Размер потока                            : 119 Мбайт (6%)
Язык                                     : English
ServiceKind/String                       : Complete Main
Default                                  : Нет
Forced                                   : Нет

Текст
Идентификатор                            : 4
Формат                                   : UTF-8
Идентификатор кодека                     : S_TEXT/UTF8
Идентификатор кодека/Информация          : UTF-8 Plain Text
Продолжительность                        : 43 м. 3 с.
Битрейт                                  : 115 бит/сек
ElementCount                             : 776
Размер потока                            : 36,5 Кбайт (0%)
Язык                                     : Russian
Default                                  : Нет
Forced                                   : Нет
скриншот  скриншот  скриншот  скриншот  
Внимание! Раздача ведётся путём добавления новых серий; при каждом добавлении создаётся новый торрент. Чтобы начать докачку новой серии, пользователям необходимо сделать следующее:
(1) остановить скачивание,
(2) удалить старый торрент у себя из клиента (старые серии удалять не надо),
(3) скачать новый торрент и запустить его у себя в клиенте вместо старого, при этом указать клиенту путь в старую папку куда и должно происходить скачивание новых серий.

Ваш клиент при этом должен произвести хеширование (проверку) старой папки (если не производит сам - помогите ему сделать это), и будет докачивать только те серии которых у вас ещё нет. Старые серии при этом не удаляются, а продолжают раздаваться!

Eсли вы уже удалили старые серии, то предотвратить повторную закачку старых серий можно, отжав галочку в соответствующих местах при запуске нового торрента. По возможности, желательно не удалять старые серии как можно дольше чтобы релизёр не столько продолжал раздавать старые серии, а смог сконцентрироваться на новых.
piratbit.pw



Скачать Без гроша через торрент https://i3.imageban.ru/out/2019/08/30/0b331fb08e29f3ad0dd5a18622e2adf2.jpg Скачать фильм Без гроша через торрент бесплантно в хорошем качестве Описание: В основе трагикомедии – криминальные авантюры друзей из английского графства Ланкашир. При этом это не просто заурядный сериал ... 10 10 4
Торрент: Зарегистрирован [2019-09-17 21:43] · скачан: 1 раз
Статус: √ проверено
Размер: 7.06 GB
Как cкачать? Как скачать Без гроша через торрент | qTorrent



Последний раз редактировалось: bober100 (2019-09-17 21:48), всего редактировалось 2 раз(а)


>> Регистрируемся здесь <<






Отзывы и комментарии о схеме читаем и пишем здесь: ---> Отзывы и комментарии о схеме

Новые благодарочки в телеграм довольных пользователей:
скриншот   скриншот   скриншот   скриншот   скриншот

11-09-2019 01:14 Без гроша Скачать торрент  

топчик подъехалpiratbit.pw



    Дорогой пользователь! Огромная просьба, поблагодарите релизера, оцените раздачу и оставьте свои комментарий, если Вы скачали Без гроша через торрент бесплатно! Внесите свою лепту в развитие PiratBit!
    Комментировать посты могут только пользователи прошедшие не сложную регистрацию
    Показать сообщения:    

    Без гроша через торрент
    Скачать бесплатно Без гроша
    Без гроша скачать торрент
    Без гроша смотреть онлайн
    Cкачать фильм Без гроша бесплатно
    Без гроша скачать торрент в хорошем качестве
    Без гроша смотреть онлайн бесплатно в хорошем качестве


    Вы не можете начинать темы
    Вы не можете отвечать на сообщения
    Вы не можете редактировать свои сообщения
    Вы не можете удалять свои сообщения
    Вы не можете голосовать в опросах
    Вы не можете прикреплять файлы к сообщениям
    Вы можете скачивать файлы