Ссылка на приватное зеркало нашего сайта всего за 1$. Внимание количество ограничено!!!

2 сезон

iTunes

1 сезон

1

iTunes

iTunes

iTunes

1 сезон

RePack

30

ИГРА 18+

pack

ВАЖНО

!!Акция!!

Alien_RageХит недели

RePack

MK11
pack

Забери бонус

RePack

jed

!!Акция!!

Alien_Rage

RePack

fifa19

RePack

Assassins Creed: Odyssey

RePack

NEED FOR SPEED™ PAYBACK

4 сезон

9 сезон

Бесстыжие 9 сезон

Все сериалы

все сериалы на PB.wtf

RePack

FAR CRY 5
  

Великолепная одержимость / Magnificent Obsession (Дуглас Серк) [1954, драма, мелодрама, BDRip 720p by msltel] AVO piratbit.pw

Великолепная одержимость через торрент piratbit.pw

Размер: 4.69 GB | Добавлен: 1 год 1 мес. назад | Торрент скачан:2 раза
Скачать  

30-08-2019 06:15 Великолепная одержимость Скачать торрент  

Название: Великолепная одержимость
Оригинальное название: Magnificent Obsession
Год выпуска: 1954
Страна: США
Жанр: драма, мелодрама
Продолжительность: 01:47:59
Перевод: авторский

Режиссер: Дуглас Серк
В ролях: Джейн Уаймэн, Рок Хадсон, Агнес Мурхед, Отто Крюгер, Барбара Раш, Грегг Палмер, Пол Кэвэна, Сара Шэйн, Ричард Х. Каттинг, Джуди Наджент, Хелен Клееб, Рудольф Андерс, Фред Нерни, Джон Майлонг, Александр Кэмпбелл, Мэй Кларк, Харви Грант, Джозеф Мелл

О фильме: Плейбой Боб Меррик попадает в аварию, катаясь на быстроходной лодке на одном из озёр Калифорнии. При спасении жизни Боба гибнет местный доктор. Желая сгладить свою вину, Меррик посещает вдову доктора Хелен и безумно в неё влюбляется. Однако Меррик опять попадает в аварию, в результате которой уже Хелен теряет зрение. Преодолевая стыд, Меррик делает всё что в его силах, чтобы завоевать сердце Хелен...



Качество: BDRip 720p
Формат: MKV
Видео: MPEG-4 AVC, 5835 Кбит/с, 1280x640, 23.976 кадр/с
Аудио 1: русский, AC3, 192 kbps, 1 ch, 48 kHz [авторский, Юрий Медведев]
Аудио 2: английский, AC3, 192 kbps, 1 ch, 48 kHz [оригинал]
Субтитры: английские
Главы/чаптеры
Общее
Уникальный идентификатор : 207376624657866396998575472132340173896 (0x9C0348FD96A93ABCA0CF2313F39DCC48)
Полное имя : D:\Video\Великолепная одержимость.1954.BDRip 720p by msltel.mkv
Формат : Matroska
Версия формата : Version 4
Размер файла : 4,69 Гбайт
Продолжительность : 1 ч. 47 м.
Общий поток : 6221 Кбит/сек
Название фильма : Rip by msltel
Дата кодирования : UTC 2019-08-30 04:38:25
Программа кодирования : mkvmerge v8.2.0 ('World of Adventure') 64bit
Библиотека кодирования : libebml v1.3.1 + libmatroska v1.4.2

Видео
Идентификатор : 1
Формат : AVC
Формат/Информация : Advanced Video Codec
Профиль формата : High@L4.1
Настройки формата : CABAC / 9 Ref Frames
Параметр CABAC формата : Да
Параметр RefFrames формата : 9 кадров
Идентификатор кодека : V_MPEG4/ISO/AVC
Продолжительность : 1 ч. 47 м.
Битрейт : 5835 Кбит/сек
Ширина : 1280 пикселей
Высота : 640 пикселей
Соотношение сторон : 2,000
Режим частоты кадров : Постоянный
Частота кадров : 23,976 (24000/1001) кадра/сек
Цветовое пространство : YUV
Субдискретизация насыщенности : 4:2:0
Битовая глубина : 8 бит
Тип развёртки : Прогрессивная
Бит/(Пиксели*Кадры) : 0.297
Размер потока : 4,40 Гбайт (94%)
Библиотека кодирования : x264 core 157 r2935 545de2f
Настройки программы : cabac=1 / ref=9 / deblock=1:-2:-2 / analyse=0x3:0x113 / me=umh / subme=11 / psy=1 / psy_rd=1.00:0.15 / mixed_ref=1 / me_range=32 / chroma_me=1 / trellis=2 / 8x8dct=1 / cqm=0 / deadzone=21,11 / fast_pskip=0 / chroma_qp_offset=-3 / threads=6 / lookahead_threads=1 / sliced_threads=0 / nr=0 / decimate=1 / interlaced=0 / bluray_compat=0 / constrained_intra=0 / bframes=13 / b_pyramid=2 / b_adapt=2 / b_bias=0 / direct=1 / weightb=1 / open_gop=0 / weightp=2 / keyint=230 / keyint_min=23 / scenecut=40 / intra_refresh=0 / rc_lookahead=40 / rc=crf / mbtree=1 / crf=21.0 / qcomp=0.60 / qpmin=0 / qpmax=69 / qpstep=4 / vbv_maxrate=50000 / vbv_bufsize=62500 / crf_max=0.0 / nal_hrd=none / filler=0 / ip_ratio=1.40 / aq=1:1.00
Язык : English
Default : Да
Forced : Нет

Аудио #1
Идентификатор : 2
Формат : AC-3
Формат/Информация : Audio Coding 3
Коммерческое название : Dolby Digital
Идентификатор кодека : A_AC3
Продолжительность : 1 ч. 47 м.
Вид битрейта : Постоянный
Битрейт : 192 Кбит/сек
Каналы : 1 канал
ChannelLayout : C
Частота : 48,0 КГц
Частота кадров : 31,250 кадров/сек (1536 SPF)
Битовая глубина : 16 бит
Метод сжатия : С потерями
Размер потока : 148 Мбайт (3%)
Заголовок : Юрий Медведев
Язык : Russian
ServiceKind/String : Complete Main
Default : Да
Forced : Нет

Аудио #2
Идентификатор : 3
Формат : AC-3
Формат/Информация : Audio Coding 3
Коммерческое название : Dolby Digital
Идентификатор кодека : A_AC3
Продолжительность : 1 ч. 47 м.
Вид битрейта : Постоянный
Битрейт : 192 Кбит/сек
Каналы : 1 канал
ChannelLayout : C
Частота : 48,0 КГц
Частота кадров : 31,250 кадров/сек (1536 SPF)
Битовая глубина : 16 бит
Метод сжатия : С потерями
Размер потока : 148 Мбайт (3%)
Заголовок : original
Язык : English
ServiceKind/String : Complete Main
Default : Нет
Forced : Нет

Текст
Идентификатор : 4
Формат : UTF-8
Идентификатор кодека : S_TEXT/UTF8
Идентификатор кодека/Информация : UTF-8 Plain Text
Продолжительность : 1 ч. 46 м.
Битрейт : 75 бит/сек
ElementCount : 1522
Размер потока : 58,9 Кбайт (0%)
Заголовок : английские
Язык : English
Default : Нет
Forced : Нет

Меню
00:00:00.000 : en:01
00:04:48.747 : en:02
00:09:44.584 : en:03
00:13:28.349 : en:04
00:19:17.073 : en:05
00:23:20.190 : en:06
00:26:03.896 : en:07
00:31:54.663 : en:08
00:37:22.824 : en:09
00:40:42.315 : en:10
00:42:36.053 : en:11
00:46:19.276 : en:12
00:51:36.260 : en:13
00:56:22.629 : en:14
01:00:17.614 : en:15
01:05:57.245 : en:16
01:09:06.059 : en:17
01:16:49.313 : en:18
01:22:11.885 : en:19
01:28:54.120 : en:20
01:32:13.528 : en:21
01:35:18.212 : en:22
01:38:34.367 : en:23
01:43:05.137 : en:24
piratbit.pw



Скачать Великолепная одержимость через торрент https://b.radikal.ru/b09/1908/41/a863f971e501.jpg Скачать фильм Великолепная одержимость через торрент бесплантно в хорошем качестве О фильме: Плейбой Боб Меррик попадает в аварию, катаясь на быстроходной лодке на одном из озёр Калифорнии. При спасении жизни Боба гибнет ... 5 10 1
Торрент: Зарегистрирован [2019-08-30 06:15] · скачан: 2 раз
Статус: √ проверено
Размер: 4.69 GB
Как cкачать? Как скачать Великолепная одержимость через торрент | qTorrent

% Раздел Тема Автор DL S | L
Классика зарубежного кино [ 11.84 GB ] Великолепная одержимость / Magnificent Obsession [1954 BDRip 1080p by msltel] AVO msltel Скачать
1 | 0

28-11-2019 20:33  

Отключить всю рекламу на сайте

    Дорогой пользователь! Огромная просьба, поблагодарите релизера, оцените раздачу и оставьте свои комментарий, если Вы скачали Великолепная одержимость через торрент бесплатно! Внесите свою лепту в развитие PiratBit!
    Комментировать посты могут только пользователи прошедшие не сложную регистрацию
    Показать сообщения:    

    Великолепная одержимость через торрент
    Скачать бесплатно Великолепная одержимость
    Великолепная одержимость скачать торрент
    Великолепная одержимость смотреть онлайн
    Cкачать фильм Великолепная одержимость бесплатно
    Великолепная одержимость скачать торрент в хорошем качестве
    Великолепная одержимость смотреть онлайн бесплатно в хорошем качестве


    Вы не можете начинать темы
    Вы не можете отвечать на сообщения
    Вы не можете редактировать свои сообщения
    Вы не можете удалять свои сообщения
    Вы не можете голосовать в опросах
    Вы не можете прикреплять файлы к сообщениям
    Вы можете скачивать файлы