Ссылка на приватное зеркало нашего сайта всего за 1$. Внимание количество ограничено!!!

2 сезон

iTunes

1 сезон

1

iTunes

iTunes

iTunes

1 сезон

RePack

30

ИГРА 18+

pack

ВАЖНО

!!Акция!!

Alien_RageХит недели

RePack

MK11
pack

Забери бонус

RePack

jed

!!Акция!!

Alien_Rage

RePack

fifa19

RePack

Assassins Creed: Odyssey

RePack

NEED FOR SPEED™ PAYBACK

4 сезон

9 сезон

Бесстыжие 9 сезон

Все сериалы

все сериалы на PB.wtf

RePack

FAR CRY 5
  

Неисправимый / L'Incorrigible (Филипп де Брока) [1975, комедия, BDRip 1080p by msltel] 2 x MVO piratbit.pw

Неисправимый через торрент piratbit.pw

Размер: 10.92 GB | Добавлен: 1 год 2 мес. назад | Торрент скачан:9 раз
Скачать  

29-08-2019 05:13 Неисправимый Скачать торрент  

Название: Неисправимый
Оригинальное название: L'Incorrigible
Год выпуска: 1975
Страна: Франция
Жанр: комедия
Продолжительность: 01:39:18
Перевод: профессиональный многоголосый

Режиссер: Филипп де Брока
В ролях: Жан-Поль Бельмондо, Женевьев Бюжо, Жюльен Гиомар, Шарль Жерар, Даниэль Секкальди, Капюсин, Андреа Ферреоль, Мишель Бон, Альбер Симоно, Паскаль Робер

О фильме: Мошенник высшего разряда, выйдя из тюрьмы, с повышенным энтузиазмом принимается за своё прежнее ремесло. Он продаёт чужие квартиры, яхты и даже истребители "Мираж" африканским странам. Обаятельнейшего пройдоху знает весь Париж, все женщины вешаются ему на шею... Но вот к нему приходит очаровательная женщина, психолог из полиции, которой поручено наблюдать за ним и помочь его адаптации к честной жизни...



Качество: BDRip 1080p
Формат: MKV
Видео: MPEG-4 AVC, 14.6 Mбит/с, 1804x1080
Аудио 1: русский, AC3, 192 kbps, 2 ch, 48 kHz [закадровый многоголосый, ОРТ]
Аудио 2: русский, AC3, 192 kbps, 2 ch, 48 kHz [закадровый многоголосый, Твистер]
Аудио 3: французский, DTS, 768 kbps, 2 ch, 48 kHz [оригинал]
Субтитры 1: русские
Субтитры 2: французские
Главы/чаптеры
Общее
Уникальный идентификатор : 197439132154926633338033267832129389179 (0x948964C848DA6543AD5BB2D02E2D027B)
Полное имя : D:\Video\Неисправимый.1975.BDRip 1080p by msltel.mkv
Формат : Matroska
Версия формата : Version 4
Размер файла : 10,9 Гбайт
Продолжительность : 1 ч. 39 м.
Общий поток : 15,7 Мбит/сек
Название фильма : Rip by msltel
Дата кодирования : UTC 2019-08-29 03:34:21
Программа кодирования : mkvmerge v8.2.0 ('World of Adventure') 64bit
Библиотека кодирования : libebml v1.3.1 + libmatroska v1.4.2

Видео
Идентификатор : 1
Формат : AVC
Формат/Информация : Advanced Video Codec
Профиль формата : High@L4.1
Настройки формата : CABAC / 4 Ref Frames
Параметр CABAC формата : Да
Параметр RefFrames формата : 4 кадра
Идентификатор кодека : V_MPEG4/ISO/AVC
Продолжительность : 1 ч. 39 м.
Битрейт : 14,6 Мбит/сек
Ширина : 1804 пикселя
Высота : 1080 пикселей
Соотношение сторон : 5:3
Режим частоты кадров : Постоянный
Частота кадров : 24,000 кадра/сек
Цветовое пространство : YUV
Субдискретизация насыщенности : 4:2:0
Битовая глубина : 8 бит
Тип развёртки : Прогрессивная
Бит/(Пиксели*Кадры) : 0.312
Размер потока : 10,1 Гбайт (93%)
Библиотека кодирования : x264 core 157 r2935 545de2f
Настройки программы : cabac=1 / ref=4 / deblock=1:-2:-2 / analyse=0x3:0x113 / me=umh / subme=11 / psy=1 / psy_rd=1.00:0.15 / mixed_ref=1 / me_range=32 / chroma_me=1 / trellis=2 / 8x8dct=1 / cqm=0 / deadzone=21,11 / fast_pskip=0 / chroma_qp_offset=-3 / threads=6 / lookahead_threads=1 / sliced_threads=0 / nr=0 / decimate=1 / interlaced=0 / bluray_compat=0 / constrained_intra=0 / bframes=7 / b_pyramid=2 / b_adapt=2 / b_bias=0 / direct=1 / weightb=1 / open_gop=0 / weightp=2 / keyint=230 / keyint_min=23 / scenecut=40 / intra_refresh=0 / rc_lookahead=40 / rc=crf / mbtree=1 / crf=16.5 / qcomp=0.60 / qpmin=0 / qpmax=69 / qpstep=4 / vbv_maxrate=50000 / vbv_bufsize=62500 / crf_max=0.0 / nal_hrd=none / filler=0 / ip_ratio=1.40 / aq=1:1.00
Язык : French
Default : Да
Forced : Нет

Аудио #1
Идентификатор : 2
Формат : AC-3
Формат/Информация : Audio Coding 3
Коммерческое название : Dolby Digital
Идентификатор кодека : A_AC3
Продолжительность : 1 ч. 39 м.
Вид битрейта : Постоянный
Битрейт : 192 Кбит/сек
Каналы : 2 канала
ChannelLayout : L R
Частота : 48,0 КГц
Частота кадров : 31,250 кадров/сек (1536 SPF)
Битовая глубина : 16 бит
Метод сжатия : С потерями
Размер потока : 136 Мбайт (1%)
Заголовок : MVO OPT
Язык : Russian
ServiceKind/String : Complete Main
Default : Да
Forced : Нет

Аудио #2
Идентификатор : 3
Формат : AC-3
Формат/Информация : Audio Coding 3
Коммерческое название : Dolby Digital
Идентификатор кодека : A_AC3
Продолжительность : 1 ч. 39 м.
Вид битрейта : Постоянный
Битрейт : 192 Кбит/сек
Каналы : 2 канала
ChannelLayout : L R
Частота : 48,0 КГц
Частота кадров : 31,250 кадров/сек (1536 SPF)
Битовая глубина : 16 бит
Метод сжатия : С потерями
Размер потока : 136 Мбайт (1%)
Заголовок : MVO Твистер
Язык : Russian
ServiceKind/String : Complete Main
Default : Нет
Forced : Нет

Аудио #3
Идентификатор : 4
Формат : DTS
Формат/Информация : Digital Theater Systems
Идентификатор кодека : A_DTS
Продолжительность : 1 ч. 39 м.
Вид битрейта : Постоянный
Битрейт : 768 Кбит/сек
Каналы : 2 канала
ChannelLayout : L R
Частота : 48,0 КГц
Частота кадров : 93,750 кадра/сек (512 SPF)
Битовая глубина : 24 бит
Метод сжатия : С потерями
Размер потока : 546 Мбайт (5%)
Заголовок : original
Язык : French
Default : Нет
Forced : Нет

Текст #1
Идентификатор : 5
Формат : UTF-8
Идентификатор кодека : S_TEXT/UTF8
Идентификатор кодека/Информация : UTF-8 Plain Text
Продолжительность : 1 ч. 37 м.
Битрейт : 111 бит/сек
ElementCount : 1059
Размер потока : 79,2 Кбайт (0%)
Заголовок : русские
Язык : Russian
Default : Нет
Forced : Нет

Текст #2
Идентификатор : 6
Формат : UTF-8
Идентификатор кодека : S_TEXT/UTF8
Идентификатор кодека/Информация : UTF-8 Plain Text
Продолжительность : 1 ч. 37 м.
Битрейт : 70 бит/сек
ElementCount : 1497
Размер потока : 50,5 Кбайт (0%)
Заголовок : французские
Язык : French
Default : Нет
Forced : Нет

Меню
00:00:00.000 : :Chapitre 01
00:08:08.416 : :Chapitre 02
00:15:03.916 : :Chapitre 03
00:22:08.208 : :Chapitre 04
00:31:20.333 : :Chapitre 05
00:40:50.833 : :Chapitre 06
00:47:01.500 : :Chapitre 07
00:55:10.375 : :Chapitre 08
01:02:55.583 : :Chapitre 09
01:12:25.416 : :Chapitre 10
01:19:02.375 : :Chapitre 11
01:27:22.916 : :Chapitre 12
piratbit.pw



Скачать Неисправимый через торрент https://c.radikal.ru/c01/1908/9d/d0d963c14c3f.png Скачать фильм Неисправимый через торрент бесплантно в хорошем качестве О фильме: Мошенник высшего разряда, выйдя из тюрьмы, с повышенным энтузиазмом принимается за своё прежнее ремесло. Он продаёт чужие ... 10 10 1
Торрент: Зарегистрирован [2019-08-29 05:13] · скачан: 9 раз
Статус: √ проверено
Размер: 10.92 GB
Как cкачать? Как скачать Неисправимый через торрент | qTorrent

28-11-2019 20:33  

Отключить всю рекламу на сайте

    Дорогой пользователь! Огромная просьба, поблагодарите релизера, оцените раздачу и оставьте свои комментарий, если Вы скачали Неисправимый через торрент бесплатно! Внесите свою лепту в развитие PiratBit!
    Комментировать посты могут только пользователи прошедшие не сложную регистрацию
    Показать сообщения:    

    Неисправимый через торрент
    Скачать бесплатно Неисправимый
    Неисправимый скачать торрент
    Неисправимый смотреть онлайн
    Cкачать фильм Неисправимый бесплатно
    Неисправимый скачать торрент в хорошем качестве
    Неисправимый смотреть онлайн бесплатно в хорошем качестве


    Вы не можете начинать темы
    Вы не можете отвечать на сообщения
    Вы не можете редактировать свои сообщения
    Вы не можете удалять свои сообщения
    Вы не можете голосовать в опросах
    Вы не можете прикреплять файлы к сообщениям
    Вы можете скачивать файлы