новый адрес
Ссылка на приватное зеркало всего за 1$. Внимание количество ограничено!!!

iTunes

1+1

iTunes

мы

WEB-DL

1

iTunes

Чернобыль

iTunes

Ральф против интернета

Лицензия

ПШазам

Лицензия

Оно 2

Лицензия

30
pack

Вам бонус

ВАЖНО

!!Акция!!

Alien_RageХит недели

RePack

Resident Evil 21

ИГРА 18+

pack

RePack

jed

!!Акция!!

Alien_Rage

RePack

fifa19

RePack

Assassins Creed: Odyssey

RePack

NEED FOR SPEED™ PAYBACK

3 сезон

9 сезон

Бесстыжие 9 сезон

Все сериалы

все сериалы на PB.wtf

RePack

FAR CRY 5
Ребята, катастрофически не хватает 1900р. для оплаты серверов за Октябрь (всвязи с блокировками трафик упал в 3 раза), 1-2р., выручайте.
  

Капкан / Crawl (Александр Ажа) [2019, ужасы, боевик, триллер, драма, приключения, BDRip 1080p] DUB [Лицензия] piratbit.pw

Капкан через торрент piratbit.pw

Раздают: 25 [ 367 KB/s ]
Размер: 9.63 GB | Добавлен: 27 д. назад | Торрент скачан:971 раз
Скачать  

28-08-2019 17:45 Капкан Скачать торрент  

Капкан / Crawl
Год выпуска: 2019
Страна: США
Студия: Paramount Pictures, Raimi Productions
Жанр: ужасы, боевик, триллер, драма, приключения
Продолжительность: 01:27:32
Перевод: Дублированный | Лицензия
Субтитры: Русские (Forced, full), английские

Режиссер: Александр Ажа

rating

В ролях: Кая Скоделарио, Барри Пеппер, Морфидд Кларк, Росс Андерсон, Хосе Пальма, Джордж Сомнер, Энсон Бун, Эми Меткалф, Тина Прибичевич, Срна Васильевич

Описание: Когда на Флориду обрушивается мощнейший ураган, Хейли игнорирует приказы об эвакуации, чтобы попытаться встретиться в этом хаосе с пропавшим отцом. Она обнаруживает его тяжелораненым в подвале их дома, где они оказываются в ловушке из-за прибывающей воды. Но это меньшее, чего им стоит бояться...

Качество: BDRip 1080p
Формат: MKV

Видео: MPEG-4 AVC, 1920x804, 14.5 Mbit/s, 23.976 fps
Аудио #01: 48 kHz, AC3, 5.1, 640 Kbps | Лицензия | RUS |
Аудио #02: 48 kHz, AC3, 5.1, 640 Kbps | Оригинал | ENG |
скриншот  скриншот  скриншот  скриншот  скриншот  

General
Unique ID : 150996649529476311067679091902904607834 (0x7198E59A216F0D9372A11FBA2205245A)
Complete name : D:Video111Crawl.2019.BDRip.1080p.seleZen.mkv
Format : Matroska
Format version : Version 4
File size : 9.63 GiB
Duration : 1 h 27 min
Overall bit rate : 15.7 Mb/s
Movie name : Crawl 2019 from селезень
Encoded date : UTC 2019-11-13 22:37:15
Writing application : mkvmerge v40.0.0 ('Old Town Road + Pony') 64-bit
Writing library : libebml v1.3.9 + libmatroska v1.5.2

Video
ID : 1
Format : AVC
Format/Info : Advanced Video Codec
Format profile : High@L4.1
Format settings : CABAC / 5 Ref Frames
Format settings, CABAC : Yes
Format settings, Reference : 5 frames
Codec ID : V_MPEG4/ISO/AVC
Duration : 1 h 27 min
Bit rate : 14.5 Mb/s
Width : 1 920 pixels
Height : 804 pixels
Display aspect ratio : 2.40:1
Frame rate mode : Constant
Frame rate : 23.976 (24000/1001) FPS
Color space : YUV
Chroma subsampling : 4:2:0
Bit depth : 8 bits
Scan type : Progressive
Bits/(Pixel*Frame) : 0.391
Stream size : 8.84 GiB (92%)
Title : DON
Writing library : x264 core 157 r2970+47 cae74a0 t_mod_New [0-bit@all X86_64]
Encoding settings : cabac=1 / ref=5 / deblock=1:-3:-3 / analyse=0x3:0x133 / me=umh / subme=10 / psy=1 / fade_compensate=0.00 / psy_rd=1.00:0.00 / mixed_ref=1 / me_range=32 / chroma_me=1 / trellis=2 / 8x8dct=1 / cqm=0 / deadzone=21,11 / fast_pskip=0 / chroma_qp_offset=-2 / threads=24 / lookahead_threads=4 / sliced_threads=0 / nr=0 / decimate=0 / interlaced=0 / bluray_compat=0 / constrained_intra=0 / fgo=0 / bframes=8 / b_pyramid=2 / b_adapt=2 / b_bias=0 / direct=3 / weightb=1 / open_gop=0 / weightp=2 / keyint=250 / keyint_min=23 / scenecut=40 / intra_refresh=0 / rc=crf / mbtree=0 / crf=16.7000 / qcomp=0.60 / qpmin=0:0:0 / qpmax=69:69:69 / qpstep=4 / ip_ratio=1.30 / pb_ratio=1.20 / aq=3:0.80 / aq-sensitivity=10.00 / aq-factor=1.00:1.00:1.00 / aq2=0 / aq3=0
Language : English
Default : Yes
Forced : No

Audio #1
ID : 2
Format : AC-3
Format/Info : Audio Coding 3
Commercial name : Dolby Digital
Codec ID : A_AC3
Duration : 1 h 27 min
Bit rate mode : Constant
Bit rate : 640 kb/s
Channel(s) : 6 channels
Channel layout : L R C LFE Ls Rs
Sampling rate : 48.0 kHz
Frame rate : 31.250 FPS (1536 SPF)
Bit depth : 16 bits
Compression mode : Lossy
Stream size : 401 MiB (4%)
Title : Dub [License]
Language : Russian
Service kind : Complete Main
Default : Yes
Forced : Yes

Audio #2
ID : 3
Format : AC-3
Format/Info : Audio Coding 3
Commercial name : Dolby Digital
Codec ID : A_AC3
Duration : 1 h 27 min
Bit rate mode : Constant
Bit rate : 640 kb/s
Channel(s) : 6 channels
Channel layout : L R C LFE Ls Rs
Sampling rate : 48.0 kHz
Frame rate : 31.250 FPS (1536 SPF)
Bit depth : 16 bits
Compression mode : Lossy
Stream size : 401 MiB (4%)
Title : Original
Language : English
Service kind : Complete Main
Default : No
Forced : No

Text #1
ID : 4
Format : UTF-8
Codec ID : S_TEXT/UTF8
Codec ID/Info : UTF-8 Plain Text
Duration : 1 h 26 min
Bit rate : 0 b/s
Count of elements : 12
Stream size : 456 Bytes (0%)
Title : Forced
Language : Russian
Default : Yes
Forced : Yes

Text #2
ID : 5
Format : UTF-8
Codec ID : S_TEXT/UTF8
Codec ID/Info : UTF-8 Plain Text
Duration : 1 h 24 min
Bit rate : 37 b/s
Count of elements : 591
Stream size : 23.0 KiB (0%)
Title : Full
Language : Russian
Default : No
Forced : No

Text #3
ID : 6
Format : UTF-8
Codec ID : S_TEXT/UTF8
Codec ID/Info : UTF-8 Plain Text
Duration : 1 h 16 min
Bit rate : 24 b/s
Count of elements : 551
Stream size : 13.9 KiB (0%)
Language : English
Default : No
Forced : No

Menu
00:00:00.000 : :Chapter 01
00:07:51.805 : :Chapter 02
00:15:16.290 : :Chapter 03
00:22:15.459 : :Chapter 04
00:34:42.998 : :Chapter 05
00:42:15.283 : :Chapter 06
00:50:13.219 : :Chapter 07
00:57:13.221 : :Chapter 08
01:03:51.619 : :Chapter 09
01:08:56.299 : :Chapter 10
01:16:36.425 : :Chapter 11
01:23:10.819 : :Chapter 12

piratbit.pw



Скачать Капкан через торрент https://img16.lostpic.net/2019/11/13/8d655af4721bfc2ef9868a854b161271.jpg Скачать фильм Капкан через торрент бесплантно в хорошем качестве Описание: Когда на Флориду обрушивается мощнейший ураган, Хейли игнорирует приказы об эвакуации, чтобы попытаться встретиться в этом хаосе ... 9.6 10 43
Info! Золотая раздача, скачанное не засчитывается.
Торрент: Зарегистрирован [2019-11-14 02:20] · скачан: 971 раз
Статус: √ проверено
Размер: 9.63 GB
Как cкачать? Как скачать Капкан через торрент | qTorrent

% Раздел Тема Автор DL S | L
Фильмы (Blu-ray, BD-Remux, HDDVD) [ 24.06 GB ] Капкан / Crawl [2019 BDRemux 1080p] DUB [] + AVO [М.Яроцкий] sheker187 Скачать
1 | 0
Фильмы (Blu-ray, BD-Remux, HDDVD) [ 38.83 GB ] Капкан / Crawl [2019 Blu-ray EUR 1080p] DUB [] bober100 Скачать
2 | 0
Фильмы 2019 [DVDrip, WEB-DLRip, HDrip] (DUB, MVO) [ 1.46 GB ] Капкан / Crawl [2019 BDRip] - [] Twi7ter Скачать
100 | 0
Фильмы 2019 [DVDrip, WEB-DLRip, HDrip] (DUB, MVO) [ 2 GB ] Капкан / Crawl [2019 BDRip-AVC] - ExKinoRay Enigma2010 Скачать
169 | 8
Фильмы 2019 [DVDrip, WEB-DLRip, HDrip] (DUB, MVO) [ 1.46 GB ] Капкан / Crawl [2019 BDRip] DUB [ Blu-Ray EUR] bober100 Скачать
11 | 0
Фильмы 2019 [DVDrip, WEB-DLRip, HDrip] (DUB, MVO) [ 745 MB ] Капкан / Crawl [2019 BDRip] DUB [ Blu-Ray EUR] bober100 Скачать
5 | 1
Фильмы [HD 720p, 1080p] (Хороший звук DUB, MVO) [ 5.21 GB ] Капкан / Crawl [2019 BDRip 720p] DUB [] bober100 Скачать
16 | 0

28-11-2019 20:33  

Отключить всю рекламу на сайте

15-11-2019 12:02 Капкан Скачать торрент  

Спасибо! Позолотил)))piratbit.pw



18-11-2019 15:04 Капкан Скачать торрент  

Ммммммм))piratbit.pw



    Дорогой пользователь! Огромная просьба, поблагодарите релизера, оцените раздачу и оставьте свои комментарий, если Вы скачали Капкан через торрент бесплатно! Внесите свою лепту в развитие PiratBit!
    Комментировать посты могут только пользователи прошедшие не сложную регистрацию
    Показать сообщения:    

    Капкан через торрент
    Скачать бесплатно Капкан
    Капкан скачать торрент
    Капкан смотреть онлайн
    Cкачать фильм Капкан бесплатно
    Капкан скачать торрент в хорошем качестве
    Капкан смотреть онлайн бесплатно в хорошем качестве


    Вы не можете начинать темы
    Вы не можете отвечать на сообщения
    Вы не можете редактировать свои сообщения
    Вы не можете удалять свои сообщения
    Вы не можете голосовать в опросах
    Вы не можете прикреплять файлы к сообщениям
    Вы можете скачивать файлы