Marvel's Avengers Deluxe Edition (супер цена) 159р. Внимание количество ограничено!!!

2 сезон

iTunes

iTunes

1

iTunes

iTunes

iTunes

WEBRip

iTunes

30
pack

Новость дня

ВАЖНО

!!Акция!!

Alien_RageХит недели

RePack

Horizon Zero Dawn

ИГРА 18+

pack

RePack

jed

!!Акция!!

Alien_Rage

RePack

fifa19

RePack

Assassins Creed: Odyssey

RePack

NEED FOR SPEED™ PAYBACK

4 сезон

9 сезон

Бесстыжие 9 сезон

Все сериалы

все сериалы на PB.wtf

RePack

FAR CRY 5
  

Ты не один (Эдуард Гаврилов, Валерий Кремнев) [1963, СССР, детский, драма, SATRip от AVP Studio] piratbit.pw

Ты не один через торрент piratbit.pw

Раздают: 2 [ 0 KB/s ]
Размер: 745 MB | Добавлен: 1 год назад | Торрент скачан:12 раз
Скачать  

22-08-2019 07:32 Ты не один Скачать торрент  

Ты не один
Страна: СССР
Производство: Мосфильм

Жанр: детский, драма
Год выпуска: 1963
Продолжительность: 01:07:04

Перевод: Не требуется
Cубтитры: нет
Оригинальная аудиодорожка: русский

Режиссер: Эдуард Гаврилов, Валерий Кремнев

В ролях:
Александр Метёлкин, Юрий Белов, Татьяна Конюхова, Юрий Боголюбов, Валентина Хмара, Борис Кордунов, Пётр Любешкин, Вадим Грачёв, Юрий Киреев, Николай Федорцов, Светлана Беседина, Алексей Добронравов, Инна Титова...
Об актёрах подробней

Описание:
Мальчишка-подросток, сирота, устраивается на завод, и начинает познавать другую — взрослую и ответственную — жизнь…

Исходник: DVB
Качество видео: SATRip
Формат видео: AVI

Видео: 704x528 (4:3), 25,000 кадров/сек, XviD ~ 1351 kbps avg, 0.145 bit/pixel
Аудио: 48 kHz, Dolby Digital AC3 2.0, 192 kbps

Раздача от:
Общее
Полное имя : Ty.ne.odin.1963.SATRip_[New-team]_by_AVP_Studio.avi
Формат : AVI
Формат/Информация : Audio Video Interleave
Размер файла : 745 Мбайт
Продолжительность : 1 ч. 7 м.
Общий поток : 1553 Кбит/сек
Программа кодирования : VirtualDubMod 1.5.10.3 | www.virtualdub-fr.org || (build 2550/release)
Библиотека кодирования : VirtualDubMod build 2550/release

Видео
Идентификатор : 0
Формат : MPEG-4 Visual
Профиль формата : Advanced Simple@L5
Настройки формата : BVOP1 / Custom Matrix
Параметр BVOP формата : 1
Параметр QPel формата : Нет
Параметр GMC формата : Без точки перехода
Параметр матрицы формата : Выборочная
Идентификатор кодека : XVID
Идентификатор кодека/Подсказка : XviD
Продолжительность : 1 ч. 7 м.
Битрейт : 1351 Кбит/сек
Ширина : 704 пикселя
Высота : 528 пикселей
Соотношение сторон : 4:3
Частота кадров : 25,000 кадров/сек
Цветовое пространство : YUV
Субдискретизация насыщенности : 4:2:0
Битовая глубина : 8 бит
Тип развёртки : Прогрессивная
Метод сжатия : С потерями
Бит/(Пиксели*Кадры) : 0.145
Размер потока : 648 Мбайт (87%)
Библиотека кодирования : XviD 73

Аудио
Идентификатор : 1
Формат : AC-3
Формат/Информация : Audio Coding 3
Коммерческое название : Dolby Digital
Идентификатор кодека : 2000
Продолжительность : 1 ч. 7 м.
Вид битрейта : Постоянный
Битрейт : 192 Кбит/сек
Каналы : 2 канала
ChannelLayout : L R
Частота : 48,0 КГц
Частота кадров : 31,250 кадров/сек (1536 SPF)
Битовая глубина : 16 бит
Метод сжатия : С потерями
Размер потока : 92,1 Мбайт (12%)
Выравнивание : Разделение по промежуткам
Продолжительность промежутка : 40 мс. (1,00 видеокадр)
Время предзагрузки промежутка : 500 мс.
piratbit.pw



Скачать Ты не один через торрент http://picplus.ru/img/1908/21/7386a52e.png Скачать фильм Ты не один через торрент бесплантно в хорошем качестве Описание:Мальчишка-подросток, сирота, устраивается на завод, и начинает познавать другую — взрослую и ответственную — жизнь… ... 5 10 1
Info! Золотая раздача, скачанное не засчитывается.
Торрент: Зарегистрирован [2019-08-22 07:32] · скачан: 12 раз
Статус: √ проверено
Размер: 745 MB
Как cкачать? Как скачать Ты не один через торрент | qTorrent

% Раздел Тема Автор DL S | L
Детские отечественные фильмы [ 745 MB ] Ты не один [1963 СССР детский SATRip-AVC от AVP Studio] AVP Studio Скачать
2 | 1
Классика [ 304 MB ] Одиннадцать тысяч палок [2015 Классика мировой литературы аудиокнига MP3 192kbps] Magnat Скачать
1 | 0
Аниме [HD 720p, 1080p] [ 4.67 GB ] Евангелион 1.11: Ты один / Evangerion shin gekijôban: Jo [2007 аниме мультфильм BDRip 1080p] DUB+Original+ Subs Assasinca Скачать
1 | 0
Наши сериалы [ 4.44 GB ] Ты не один / Сезон: 1 / Серии: 13 из ? [2013 HDTVRip] Оригинал -=Cherry=- Скачать
1 | 0
Научно-популярные фильмы [ 700 MB ] Одиннадцатый час / The 11th Hour [2007 документальный DVDRip] VintMosina Скачать
1 | 0
Архив (Отечественный Рок) [ 134 MB ] Психея-НадеждыРазбитыхСердец Дневники Одиночки - 2009 MP3 320 kbps Anonymous Скачать
1 | 0

28-11-2019 20:33  

Отключить всю рекламу на сайте

    Дорогой пользователь! Огромная просьба, поблагодарите релизера, оцените раздачу и оставьте свои комментарий, если Вы скачали Ты не один через торрент бесплатно! Внесите свою лепту в развитие PiratBit!
    Комментировать посты могут только пользователи прошедшие не сложную регистрацию
    Показать сообщения:    

    Ты не один через торрент
    Скачать бесплатно Ты не один
    Ты не один скачать торрент
    Ты не один смотреть онлайн
    Cкачать фильм Ты не один бесплатно
    Ты не один скачать торрент в хорошем качестве
    Ты не один смотреть онлайн бесплатно в хорошем качестве


    Вы не можете начинать темы
    Вы не можете отвечать на сообщения
    Вы не можете редактировать свои сообщения
    Вы не можете удалять свои сообщения
    Вы не можете голосовать в опросах
    Вы не можете прикреплять файлы к сообщениям
    Вы можете скачивать файлы