1 сезон

1 сезон

iTunes

1

КиноПоиск HD

Кинопоиск HD

iTunes

13

1 сезон

RePack

30

Новинка

ВАЖНО

ИГРА 18+

pack

RePack

MK11
pack

Легкие деньги

RePack

jed

RePack

fifa19

RePack

RDR2

RePack

NEED FOR SPEED™ PAYBACK

4 сезон

9 сезон

Бесстыжие 9 сезон

Все сериалы

все сериалы на PB.wtf

RePack

FAR CRY 5
  
Magnet ссылка

Военный робот / Robowar - Robot da guerra (Бруно Маттеи) [1988 г., Ужасы, фантастика, боевик, комедия, приключения, BDRip 1080p, Авторский (одноголосый)] [Андрей Дольский] piratbit.pw

Военный робот через торрент piratbit.pw

Размер: 9.95 GB | Добавлен: 1 год 8 мес. назад | Торрент скачан:9 раз
Скачать  

17-08-2019 19:03 Военный робот Скачать торрент  

Военный робот / Robowar - Robot da guerra
Год выпуска: 1988
Страна: Италия
Жанр: Ужасы, фантастика, боевик, комедия, приключения
Продолжительность: 01:30:46
Перевод: Авторский (одноголосый) Андрей Дольский
Субтитры: Английские

Режиссер: Бруно Маттеи

rating

В ролях: Рэб Браун, Кэтрин Хиклэнд, Массимо Ванни, Романо Пуппо, Клаудио Фрагассо, Лучиано Пигоцци, Макс Лорел, Джим Гейнс, Джон П. Дьюлени, Мэл Дэвидсон

Описание: Новейшее американское военное оружие, робот, оснащенный по последнему слову милитарной техники, выходит из строя и сбегает в джунгли. На поимку опасного беглеца отправляется группа спецназа, которой не объяснили основную суть задания, завуалировав всё военными учениями. И тогда, оказавшись на месте, коммандос понимают, что окружающие джунгли оказались для них настоящим зеленым адом. Кто этот робот? Что скрывается за стальным каркасом? Ответ будет получен теми, кто останется в живых, лишь в самом конце.

Качество: BDRip 1080p
Формат: MKV
Видео кодек: AVC
Аудио кодек: AC3
Видео: AVC, 1920x1080 , 23.9fps, 12,5 Mbps
Аудио#1: Русский / AC3 / 2.0 / 48 kHz / 192 kbps / 16 bits
Аудио#2: Итальянский / DTS / 2.0 / 48 kHz / 1509 kbps / 24 bits
Аудио#3: Английский / DTS / 2.0 / 48 kHz / 1509 kbps / 24 bits
General
Unique ID : 240324592650690498747561803846654304194 (0xB4CCD53B48E30508BDA18F40BF531FC2)
Complete name : C:UsersALEXDesktopHDDRobowar.1988.BDRip.1080p.Rus.Ita.Eng.Subs.Chpt.CREEPSHOW.mkv
Format : Matroska
Format version : Version 4 / Version 2
File size : 9.95 GiB
Duration : 1h 30mn
Overall bit rate : 15.7 Mbps
Movie name : Robowar - Robot da guerra
Encoded date : UTC 2019-08-17 10:30:44
Writing application : mkvmerge v8.5.2 ('Crosses') 64bit
Writing library : libebml v1.3.3 + libmatroska v1.4.4
DURATION : 01:30:31.635000000
NUMBER_OF_FRAMES : 966
NUMBER_OF_BYTES : 24319
_STATISTICS_WRITING_APP : mkvmerge v8.5.2 ('Crosses') 64bit
_STATISTICS_WRITING_DATE_UTC : 2019-08-17 10:30:44
_STATISTICS_TAGS : BPS DURATION NUMBER_OF_FRAMES NUMBER_OF_BYTES

Video
ID : 1
Format : AVC
Format/Info : Advanced Video Codec
Format profile : High@L4.1
Format settings, CABAC : Yes
Format settings, ReFrames : 4 frames
Codec ID : V_MPEG4/ISO/AVC
Duration : 1h 30mn
Bit rate : 12.5 Mbps
Width : 1 920 pixels
Height : 1 040 pixels
Display aspect ratio : 1.85:1
Frame rate mode : Constant
Frame rate : 23.976 fps
Color space : YUV
Chroma subsampling : 4:2:0
Bit depth : 8 bits
Scan type : Progressive
Bits/(Pixel*Frame) : 0.261
Stream size : 7.72 GiB (78%)
Title : Robowar - Robot da guerra
Writing library : x264 core 157 r2969 d4099dd
Encoding settings : cabac=1 / ref=4 / deblock=1:-2:-2 / analyse=0x3:0x133 / me=umh / subme=9 / psy=1 / psy_rd=1.00:0.00 / mixed_ref=1 / me_range=16 / chroma_me=1 / trellis=2 / 8x8dct=1 / cqm=0 / deadzone=21,11 / fast_pskip=0 / chroma_qp_offset=-2 / threads=12 / lookahead_threads=1 / sliced_threads=0 / nr=0 / decimate=1 / interlaced=0 / bluray_compat=0 / constrained_intra=0 / bframes=3 / b_pyramid=2 / b_adapt=2 / b_bias=0 / direct=3 / weightb=1 / open_gop=0 / weightp=2 / keyint=240 / keyint_min=23 / scenecut=40 / intra_refresh=0 / rc_lookahead=50 / rc=2pass / mbtree=1 / bitrate=12488 / ratetol=1.0 / qcomp=0.60 / qpmin=0 / qpmax=69 / qpstep=4 / cplxblur=20.0 / qblur=0.5 / vbv_maxrate=62500 / vbv_bufsize=78125 / nal_hrd=none / filler=0 / ip_ratio=1.40 / aq=1:0.70
Language : English
Default : Yes
Forced : No

Audio #1
ID : 2
Format : AC-3
Format/Info : Audio Coding 3
Mode extension : CM (complete main)
Format settings, Endianness : Big
Codec ID : A_AC3
Duration : 1h 30mn
Bit rate mode : Constant
Bit rate : 192 Kbps
Channel(s) : 2 channels
Channel positions : Front: L R
Sampling rate : 48.0 KHz
Bit depth : 16 bits
Compression mode : Lossy
Stream size : 125 MiB (1%)
Title : AVO (Андрей Дольский)
Language : Russian
Default : Yes
Forced : No

Audio #2
ID : 3
Format : DTS
Format/Info : Digital Theater Systems
Mode : 16
Format settings, Endianness : Big
Codec ID : A_DTS
Duration : 1h 30mn
Bit rate mode : Constant
Bit rate : 1 509 Kbps
Channel(s) : 2 channels
Channel positions : Front: L R
Sampling rate : 48.0 KHz
Bit depth : 24 bits
Compression mode : Lossy
Stream size : 980 MiB (10%)
Title : Original
Language : Italian
Default : No
Forced : No

Audio #3
ID : 4
Format : DTS
Format/Info : Digital Theater Systems
Mode : 16
Format settings, Endianness : Big
Codec ID : A_DTS
Duration : 1h 30mn
Bit rate mode : Constant
Bit rate : 1 509 Kbps
Channel(s) : 2 channels
Channel positions : Front: L R
Sampling rate : 48.0 KHz
Bit depth : 24 bits
Compression mode : Lossy
Stream size : 980 MiB (10%)
Language : English
Default : No
Forced : No

Text #1
ID : 5
Format : UTF-8
Codec ID : S_TEXT/UTF8
Codec ID/Info : UTF-8 Plain Text
Title : Full
Language : English
Default : No
Forced : No

Text #2
ID : 6
Format : UTF-8
Codec ID : S_TEXT/UTF8
Codec ID/Info : UTF-8 Plain Text
Title : SDH
Language : English
Default : No
Forced : No

Menu
00:00:00.000 : en:Chapter 01
00:12:35.838 : en:Chapter 02
00:22:33.853 : en:Chapter 03
00:34:45.500 : en:Chapter 04
00:43:39.492 : en:Chapter 05
00:52:59.927 : en:Chapter 06
01:04:38.458 : en:Chapter 07
01:24:19.638 : en:Chapter 08

piratbit.pw



Скачать Военный робот через торрент https://pic1.kartinco.top/images/12/h1j1d.jpg Скачать фильм Военный робот через торрент бесплантно в хорошем качестве Описание: Новейшее американское военное оружие, робот, оснащенный по последнему слову милитарной техники, выходит из строя и сбегает в ... 10 10 2
Торрент: Зарегистрирован [2019-08-17 19:03] · скачан: 9 раз
Статус: √ проверено
Размер: 9.95 GB
Как cкачать? Как скачать Военный робот через торрент | UTorrent

28-11-2019 20:33  

Отключить всю рекламу на сайте


    Дорогой пользователь! Огромная просьба, поблагодарите релизера, оцените раздачу и оставьте свои комментарий, если Вы скачали Военный робот через торрент бесплатно! Внесите свою лепту в развитие PiratBit!
    Комментировать посты могут только пользователи прошедшие не сложную регистрацию
    Показать сообщения:    

    Военный робот через торрент
    Скачать бесплатно Военный робот
    Военный робот скачать торрент
    Военный робот смотреть онлайн
    Cкачать фильм Военный робот бесплатно
    Военный робот скачать торрент в хорошем качестве
    Военный робот смотреть онлайн бесплатно в хорошем качестве


    Вы не можете начинать темы
    Вы не можете отвечать на сообщения
    Вы не можете редактировать свои сообщения
    Вы не можете удалять свои сообщения
    Вы не можете голосовать в опросах
    Вы не можете прикреплять файлы к сообщениям
    Вы можете скачивать файлы