Ссылка на приватное зеркало нашего сайта всего за 1$. Внимание количество ограничено!!!

2 сезон

iTunes

iTunes

1

iTunes

iTunes

iTunes

WEBRip

iTunes

30
pack

Новость дня

ВАЖНО

!!Акция!!

Alien_RageХит недели

RePack

Horizon Zero Dawn

ИГРА 18+

pack

RePack

jed

!!Акция!!

Alien_Rage

RePack

fifa19

RePack

Assassins Creed: Odyssey

RePack

NEED FOR SPEED™ PAYBACK

4 сезон

9 сезон

Бесстыжие 9 сезон

Все сериалы

все сериалы на PB.wtf

RePack

FAR CRY 5
  

Выше неба (Оксана Карас) [2019, Драма, мелодрама, детектив, WEB-DL 1080p] [iTunes] piratbit.pw

Выше неба через торрент piratbit.pw

Раздают: 1 [ 0 KB/s ]
Размер: 3.6 GB | Добавлен: 1 год 1 мес. назад | Торрент скачан:107 раз
Скачать  

14-08-2019 19:30 Выше неба Скачать торрент  

Выше неба Год выпуска: 2019
Страна: Россия
Жанр: Драма, мелодрама, детектив
Продолжительность: 01:43:39 | iTunes
Субтитры: отсутствуют

Режиссер: Оксана Карас



В ролях: Таисия Вилкова, Филипп Авдеев, Полина Виторган, Дарья Жовнер, Виктория Толстоганова, Алексей Агранович, Артем Немов, Анастасия Богатырева, Ирина Денисова, Валентин Самохин и др.

Описание: Молодая девушка проводит лето на загородном курорте под бдительным присмотром матери. Там её внимание привлекает парень, прошлое которого окутано тайной. Девушка не догадывается, что после этой встречи её жизнь изменится навсегда, а чувствам будет суждено взлететь выше неба…

Качество: WEB-DL 1080p
Формат: MKV

Видео: MPEG-4 AVC, 1920x816, 4590 kbps, 24,000 fps
Аудио: русский, AC3, 5.1 ch, 48 kHz, 384 kbps
скриншот  скриншот  скриншот  скриншот  скриншот  

Общее
Уникальный идентификатор : 255013802550056421284795472488469783003 (0xBFD9DF31F9D0857F88A64ADC77E661DB)
Полное имя : E:Torrent2VysheNebaWEBDL1080p.mkv
Формат : Matroska
Версия формата : Version 4 / Version 2
Размер файла : 3,60 Гбайт
Продолжительность : 1 ч. 43 м.
Общий поток : 4976 Кбит/сек
Дата кодирования : UTC 2019-08-14 18:17:40
Программа кодирования : mkvmerge v9.5.0 ('Quiet Fire') 64bit
Библиотека кодирования : libebml v1.3.4 + libmatroska v1.4.5

Видео
Идентификатор : 1
Формат : AVC
Формат/Информация : Advanced Video Codec
Профиль формата : High@L4
Настройки формата : CABAC / 5 Ref Frames
Параметр CABAC формата : Да
Параметр RefFrames формата : 5 кадров
Идентификатор кодека : V_MPEG4/ISO/AVC
Продолжительность : 1 ч. 43 м.
Битрейт : 4590 Кбит/сек
Ширина : 1920 пикселей
Высота : 816 пикселей
Соотношение сторон : 2,35:1
Режим частоты кадров : Постоянный
Частота кадров : 24,000 кадра/сек
Цветовое пространство : YUV
Субдискретизация насыщенности : 4:2:0
Битовая глубина : 8 бит
Тип развёртки : Прогрессивная
Бит/(Пиксели*Кадры) : 0.122
Размер потока : 3,32 Гбайт (92%)
Заголовок : Sisendrovich(R)
Язык : English
Default : Да
Forced : Нет
Цветовой диапазон : Limited
Основные цвета : BT.709
Характеристики трансфера : BT.709
Коэффициенты матрицы : BT.709

Аудио
Идентификатор : 2
Формат : AC-3
Формат/Информация : Audio Coding 3
Параметр Endianness формата : Big
Идентификатор кодека : A_AC3
Продолжительность : 1 ч. 43 м.
Вид битрейта : Постоянный
Битрейт : 384 Кбит/сек
Каналы : 6 каналов
Расположение каналов : Front: L C R, Side: L R, LFE
Частота : 48,0 КГц
Частота кадров : 31,250 кадров/сек (1536 SPF)
Битовая глубина : 16 бит
Метод сжатия : С потерями
Размер потока : 285 Мбайт (8%)
Заголовок : rus
Язык : Russian
Default : Да
Forced : Нет

Меню
00:00:00.000 : en:Глава 1
00:08:15.958 : en:Глава 2
00:16:31.333 : en:Глава 3
00:24:33.499 : en:Глава 4
00:32:57.582 : en:Глава 5
00:41:07.498 : en:Глава 6
00:49:27.831 : en:Глава 7
00:58:08.914 : en:Глава 8
01:06:21.539 : en:Глава 9
01:14:43.122 : en:Глава 10
01:23:50.955 : en:Глава 11
01:32:05.205 : en:Глава 12

piratbit.pw



Скачать Выше неба через торрент http://lostpix.com/thumbs/2019-08/14/edk2y82n1kaindsv7xa0c7ks2.png Скачать фильм Выше неба через торрент бесплантно в хорошем качестве Описание: Молодая девушка проводит лето на загородном курорте под бдительным присмотром матери. Там её внимание привлекает парень, прошлое ... 10 10 6
Торрент: Зарегистрирован [2019-08-14 19:30] · скачан: 107 раз
Статус: √ проверено
Размер: 3.6 GB
Как cкачать? Как скачать Выше неба через торрент | qTorrent

% Раздел Тема Автор DL S | L
Наши новые фильмы 2018-2019 [ 746 MB ] Выше неба [2019 WEB-DLRip] bober100 Скачать
1 | 0
Наши новые фильмы 2018-2019 [ 1.81 GB ] Выше неба [2019 WEB-DLRip-AVC] - ExKinoRay Enigma2010 Скачать
6 | 2
Наши новые фильмы 2018-2019 [ 1.46 GB ] Выше неба [2019 WEB-DLRip] bober100 Скачать
3 | 0
Наши новые фильмы 2012 [ 2.06 GB ] Выше неба / Вышэй за неба [2012 HDTVRip] [Режиссерская версия] bober100 Скачать
1 | 0
Наши сериалы [ 3.03 GB ] Выше неба /Телевизионная версия / 1-8 серии из 8 / Вышэй за неба [2012 Беларусь WEBRip Original] кэп Скачать
1 | 0
Фильмы 2012 [ 2.19 GB ] Выше неба / Вышэй за неба [2012 Беларусь HDTVRip] [Режиссерская версия] -=Cherry=- Скачать
1 | 0
Фильмы 2012 [ 1.43 GB ] Выше неба / Вышэй за неба [2012 DVDRip Оригинал] Яйцеслав Скачать
1 | 0

28-11-2019 20:33  

Отключить всю рекламу на сайте

    Дорогой пользователь! Огромная просьба, поблагодарите релизера, оцените раздачу и оставьте свои комментарий, если Вы скачали Выше неба через торрент бесплатно! Внесите свою лепту в развитие PiratBit!
    Комментировать посты могут только пользователи прошедшие не сложную регистрацию
    Показать сообщения:    

    Выше неба через торрент
    Скачать бесплатно Выше неба
    Выше неба скачать торрент
    Выше неба смотреть онлайн
    Cкачать фильм Выше неба бесплатно
    Выше неба скачать торрент в хорошем качестве
    Выше неба смотреть онлайн бесплатно в хорошем качестве


    Вы не можете начинать темы
    Вы не можете отвечать на сообщения
    Вы не можете редактировать свои сообщения
    Вы не можете удалять свои сообщения
    Вы не можете голосовать в опросах
    Вы не можете прикреплять файлы к сообщениям
    Вы можете скачивать файлы