Ссылка на приватное зеркало всего за 1$. Внимание количество ограничено!!!


iTunes

1+1

iTunes

мы

WEB-DL

1

iTunes

Чернобыль

iTunes

Ральф против интернета

Лицензия

ПШазам

Лицензия

Оно 2

WEB-DL

30
pack

Вам бонус

ВАЖНО

!!Акция!!

Alien_RageХит недели

RePack

Resident Evil 21

ИГРА 18+

pack

RePack

jed

!!Акция!!

Alien_Rage

RePack

fifa19

RePack

Assassins Creed: Odyssey

RePack

NEED FOR SPEED™ PAYBACK

4 сезон

9 сезон

Бесстыжие 9 сезон

Все сериалы

все сериалы на PB.wtf

RePack

FAR CRY 5
Ребята, катастрофически не хватает 1900р. для оплаты серверов за Октябрь (всвязи с блокировками трафик упал в 3 раза), 1-2р., выручайте.
  

Террор / The Terror / Сезон: 2 / Серии: 1- из 10 (Эдвард Бергер) [2019, ужасы, драма, триллер, WEB-DL 1080p] [MVO] (NewStudio) piratbit.pw

Террор через торрент piratbit.pw

Размер: 2.72 GB | Добавлен: 4 мес. 1 д. назад | Торрент скачан:17 раз
Скачать  

13-08-2019 21:07 Террор Скачать торрент  


Террор / The Terror

Год выпуска: 2019
Страна: США
Жанр: ужасы, драма, триллер
Продолжительность: ~00:52:00
Перевод: Профессиональный (многоголосый закадровый) - NewStudio
Режиссёр: Тим Милантс, Эдвард Бергер

В ролях: Джаред Харрис, Тобайас Мензис, Пол Рэди, Адам Нагаитис, Иэн Харт, Нив Нилсен, Киран Хайндс, Кристос Лоутон, Дерек Мио, Синго Усами и другие.
Описание: В 1942 году в разгар Второй мировой войны президент США санкционировал интернирование, в результате чего около 120 тысяч японцев, живших в Америке, были насильственно выселены с Тихоокеанского побережья и помещены в специальные лагеря. Вместе с интернированными там оказалось нечто древнее и зловещее.

rating скриншот  

Качество: WEB-DL 1080p
Формат: MKV
Видео: AVC/H.264, 1920x1080, ~6800 Kbps, 23.976 fps
Аудио # Rus: AC3, 48 kHz, 6 ch, 448 kbps
General
Unique ID : 194088697210316650928153384318308509500 (0x92041F95FDF0D749853A3180E7A4E73C)
Complete name : E:\The.Terror.s02e01.WEBDL.1080p.NewStudio.TV.mkv
Format : Matroska
Format version : Version 4 / Version 2
File size : 2.72 GiB
Duration : 52 min 40 s
Overall bit rate mode : Variable
Overall bit rate : 7 392 kb/s
Encoded date : UTC 2019-08-13 07:21:55
Writing application : TMPGEnc Video Mastering Works 7 Version 7.0.11.12
Writing library : TMPGEnc Video Mastering Works 7 Version 7.0.11.12

Video
ID : 1
Format : AVC
Format/Info : Advanced Video Codec
Format profile : High@L4.1
Format settings : CABAC / 4 Ref Frames
Format settings, CABAC : Yes
Format settings, RefFrames : 4 frames
Codec ID : V_MPEG4/ISO/AVC
Duration : 52 min 40 s
Bit rate mode : Variable
Bit rate : 6 797 kb/s
Maximum bit rate : 49.6 Mb/s
Width : 1 920 pixels
Height : 1 080 pixels
Display aspect ratio : 16:9
Frame rate mode : Constant
Frame rate : 23.976 (24000/1001) FPS
Standard : Component
Color space : YUV
Chroma subsampling : 4:2:0
Bit depth : 8 bits
Scan type : Progressive
Bits/(Pixel*Frame) : 0.137
Stream size : 2.50 GiB (92%)
Default : Yes
Forced : No
Color range : Limited
Color primaries : BT.709
Transfer characteristics : BT.709
Matrix coefficients : BT.709

Audio
ID : 2
Format : AC-3
Format/Info : Audio Coding 3
Format settings, Endianness : Big
Codec ID : A_AC3
Duration : 52 min 40 s
Bit rate mode : Constant
Bit rate : 448 kb/s
Channel(s) : 6 channels
Channel positions : Front: L C R, Side: L R, LFE
Sampling rate : 48.0 kHz
Frame rate : 31.250 FPS (1536 SPF)
Bit depth : 16 bits
Compression mode : Lossy
Stream size : 169 MiB (6%)
Service kind : Complete Main
Default : Yes
Forced : No
скриншот  скриншот  скриншот  
Внимание! Раздача ведётся путём добавления новых серий; при каждом добавлении создаётся новый торрент. Чтобы начать докачку новой серии, пользователям необходимо сделать следующее:
(1) остановить скачивание,
(2) удалить старый торрент у себя из клиента (старые серии удалять не надо),
(3) скачать новый торрент и запустить его у себя в клиенте вместо старого, при этом указать клиенту путь в старую папку куда и должно происходить скачивание новых серий.

Ваш клиент при этом должен произвести хеширование (проверку) старой папки (если не производит сам - помогите ему сделать это), и будет докачивать только те серии которых у вас ещё нет. Старые серии при этом не удаляются, а продолжают раздаваться!

Eсли вы уже удалили старые серии, то предотвратить повторную закачку старых серий можно, отжав галочку в соответствующих местах при запуске нового торрента. По возможности, желательно не удалять старые серии как можно дольше чтобы релизёр не столько продолжал раздавать старые серии, а смог сконцентрироваться на новых.
piratbit.pw



Скачать Террор через торрент https://i89.fastpic.ru/big/2019/0807/af/db265bf41b82c40fae5d58d9fd7801af.png Скачать фильм Террор через торрент бесплантно в хорошем качестве Описание: В 1942 году в разгар Второй мировой войны президент США санкционировал интернирование, в результате чего около 120 тысяч японцев, ... 5 10 1
Торрент: Зарегистрирован [2019-08-13 21:07] · скачан: 17 раз
Статус: √ проверено
Размер: 2.72 GB
Как cкачать? Как скачать Террор через торрент | qTorrent

% Раздел Тема Автор DL S | L
Зарубежные сериалы [ 17.77 GB ] Террор / The Terror / Сезон: 2 / Серия: 1-10 из 10 [2019 история WEB-DL 720p] 4x[MVO] killermax2013 Скачать
1 | 0
Зарубежные сериалы [ 28.24 GB ] Террор / The Terror / Сезон: 2 / Серии: 1-10 из 10 [2019 WEB-DL 1080p] MVO [AMS] bober100 Скачать
1 | 0
Зарубежные сериалы [ 8.75 GB ] Террор / The Terror / Сезон: 2 / Серии: 1-10 из 10 [2019 WEB-DLRip] [MVO] killermax2013 Скачать
1 | 0
Зарубежные сериалы [ 14.77 GB ] Террор / The Terror / Сезон: 2 / Серии: 1-10 из 10 [2019 WEBRip 720p] [DVO] killermax2013 Скачать
1 | 0
Зарубежные сериалы [ 7.34 GB ] Террор / The Terror / Сезон: 2 / Серии: 1-10 из 10 [2019 WEB-DLRip] MVO [TVShows] bober100 Скачать
1 | 0
Зарубежные сериалы [ 14.77 GB ] Террор / The Terror / Сезон: 2 / Серии: 1-10 из 10 [2019 WEB-DL 720p] MVO [LostFilm] bober100 Скачать
2 | 0
Зарубежные сериалы [ 14.24 GB ] Террор / The Terror / Сезон: 2 / Серии: 1-10 из 10 [2019 WEB-DL 720p] [MVO] killermax2013 Скачать
1 | 0

28-11-2019 20:33  

Отключить всю рекламу на сайте

    Дорогой пользователь! Огромная просьба, поблагодарите релизера, оцените раздачу и оставьте свои комментарий, если Вы скачали Террор через торрент бесплатно! Внесите свою лепту в развитие PiratBit!
    Комментировать посты могут только пользователи прошедшие не сложную регистрацию
    Показать сообщения:    

    Террор через торрент
    Скачать бесплатно Террор
    Террор скачать торрент
    Террор смотреть онлайн
    Cкачать фильм Террор бесплатно
    Террор скачать торрент в хорошем качестве
    Террор смотреть онлайн бесплатно в хорошем качестве


    Вы не можете начинать темы
    Вы не можете отвечать на сообщения
    Вы не можете редактировать свои сообщения
    Вы не можете удалять свои сообщения
    Вы не можете голосовать в опросах
    Вы не можете прикреплять файлы к сообщениям
    Вы можете скачивать файлы