новый адрес
Ссылка на приватное зеркало всего за 1$. Внимание количество ограничено!!!

iTunes

1+1

iTunes

мы

WEB-DL

1

iTunes

Чернобыль

iTunes

Ральф против интернета

Лицензия

ПШазам

Лицензия

Оно 2

Лицензия

30
pack

Вам бонус

ВАЖНО

!!Акция!!

Alien_RageХит недели

RePack

Resident Evil 21

ИГРА 18+

pack

RePack

jed

!!Акция!!

Alien_Rage

RePack

fifa19

RePack

Assassins Creed: Odyssey

RePack

NEED FOR SPEED™ PAYBACK

3 сезон

9 сезон

Бесстыжие 9 сезон

Все сериалы

все сериалы на PB.wtf

RePack

FAR CRY 5
Ребята, катастрофически не хватает 1900р. для оплаты серверов за Октябрь (всвязи с блокировками трафик упал в 3 раза), 1-2р., выручайте.
  

Подарок Сталину (Рустем Абдрашов) [2008, драма, DVDRip-AVC] piratbit.pw

Подарок Сталину через торрент piratbit.pw

Размер: 1.35 GB | Добавлен: 3 мес. 24 д. назад | Торрент скачан:10 раз
Скачать  

13-08-2019 18:47 Подарок Сталину Скачать торрент  

Подарок Сталину Страна: Россия, Казахстан
Год выпуска: 2008
Жанр: драма
Продолжительность: 01:36:28
Перевод: не требуется

Режиссёр: Рустем Абдрашов

В ролях: Нуржуман Ихтымбаев, Дален Шинтемиров, Давид Маркиш, Екатерина Редникова, Вальдемар Шчепаняк, Александр Баширов, Бахтияр Кожа, Ерболат Тогузаков, Самат Мырзаханов, Асель Садвокасова, Турахан Сыздыков

Описание: События происходят в 1949 году, когда началась очередная волна репрессий, и людей отправляли в ссылки или просто лишали жизни. Иосиф Сталин отмечает семидесятилетие, а в Казахстане проводят первое испытание советской атомной бомбы. Здесь же, в казахской степи, в железнодорожном составе среди трупов ссыльных путевой обходчик находит живого ребенка и забирает его в аул.



Качество видео: DVDRip-AVC
Формат видео: MKV

Видео: H.264 (AVC), 696x418 (16:9), 25 fps, 1585 Кбит/с
Аудио: 5.1, AC3, 384 Кбит/с, 48 кГц, 16 бит
Субтитры: английские

Код:

Общее
Уникальный идентификатор                 : 43757476756349723944834234191910257368 (0x20EB622B96543C33F053A78377EBC2D8)
Полное имя                               : /Volumes/Main2/torrents/uploads_data_my/rutracker/video/Подарок Сталину [2008].mkv
Формат                                   : Matroska
Версия формата                           : Version 4 / Version 2
Размер файла                             : 1,35 Гбайт
Продолжительность                        : 1 ч. 36 м.
Общий поток                              : 2009 Кбит/сек
Дата кодирования                         : UTC 2018-03-16 15:19:41 / UTC 2018-03-14T22:51:57Z
Программа кодирования                    : mkvmerge v21.0.0 ('Tardigrades Will Inherit The Earth') 64-bit
Библиотека кодирования                   : libebml v1.3.5 + libmatroska v1.4.8 / Lavf57.7.2

Видео
Идентификатор                            : 1
Формат                                   : AVC
Формат/Информация                        : Advanced Video Codec
Профиль формата                          : High@L3.1
Параметр CABAC формата                   : Да
Параметр ReFrames формата                : 10 кадров
Идентификатор кодека                     : V_MPEG4/ISO/AVC
Продолжительность                        : 1 ч. 36 м.
Битрейт                                  : 1585 Кбит/сек
Ширина                                   : 696 пикселей
Высота                                   : 418 пикселей
Соотношение сторон                       : 16:9
Соотношение сторон в оригинале           : 16:9
Режим частоты кадров                     : Постоянный
Частота кадров                           : 25,000 кадров/сек
Цветовое пространство                    : YUV
Субдискретизация насыщенности            : 4:2:0
Битовая глубина                          : 8 бит
Тип развёртки                            : Прогрессивная
Бит/(Пиксели*Кадры)                      : 0.218
Размер потока                            : 1,07 Гбайт (79%)
Библиотека кодирования                   : x264 core 148 r2708 86b7198
Настройки программы                      : cabac=1 / ref=10 / deblock=1:0:0 / analyse=0x3:0x133 / me=umh / subme=10 / psy=1 / psy_rd=1.00:0.05 / mixed_ref=1 / me_range=28 / chroma_me=1 / trellis=2 / 8x8dct=1 / cqm=0 / deadzone=21,11 / fast_pskip=1 / chroma_qp_offset=-3 / threads=6 / lookahead_threads=1 / sliced_threads=0 / nr=0 / decimate=0 / interlaced=0 / bluray_compat=0 / constrained_intra=0 / bframes=7 / b_pyramid=2 / b_adapt=2 / b_bias=0 / direct=3 / weightb=1 / open_gop=0 / weightp=2 / keyint=250 / keyint_min=25 / scenecut=40 / intra_refresh=0 / rc_lookahead=60 / rc=crf / mbtree=1 / crf=19.5 / qcomp=0.60 / qpmin=0 / qpmax=69 / qpstep=4 / ip_ratio=1.40 / aq=1:1.00
Default                                  : Да
Forced                                   : Нет
Цветовой диапазон                        : Limited
Основные цвета                           : BT.601 PAL
Характеристики трансфера                 : BT.709
Коэффициенты матрицы                     : BT.601
Statistics Tags Issue                    : mkvmerge v21.0.0 ('Tardigrades Will Inherit The Earth') 64-bit 2018-03-16 15:19:41 / mkvmerge v21.0.0 ('Tardigrades Will Inherit The Earth') 64-bit 2018-03-16 15:19:41 / UTC 2018-03-14T22:51:57Z
FromStats_BitRate                        : 1621693
FromStats_Duration                       : 01:36:28.160000000
FromStats_FrameCount                     : 144704
FromStats_StreamSize                     : 1173327908

Аудио
Идентификатор                            : 2
Формат                                   : AC-3
Формат/Информация                        : Audio Coding 3
Параметр Endianness формата              : Big
Идентификатор кодека                     : A_AC3
Продолжительность                        : 1 ч. 36 м.
Вид битрейта                             : Постоянный
Битрейт                                  : 384 Кбит/сек
Каналы                                   : 6 каналов
Расположение каналов                     : Front: L C R, Side: L R, LFE
Частота                                  : 48,0 КГц
Частота кадров                           : 31,250 кадров/сек (1536 spf)
Битовая глубина                          : 16 бит
Метод сжатия                             : С потерями
Размер потока                            : 265 Мбайт (19%)
Заголовок                                : Surround
Язык                                     : Russian
Service kind                             : Complete Main
Default                                  : Нет
Forced                                   : Нет
Statistics Tags Issue                    : mkvmerge v21.0.0 ('Tardigrades Will Inherit The Earth') 64-bit 2018-03-16 15:19:41 / mkvmerge v21.0.0 ('Tardigrades Will Inherit The Earth') 64-bit 2018-03-16 15:19:41 / UTC 2018-03-14T22:51:57Z
FromStats_BitRate                        : 384000
FromStats_Duration                       : 01:36:28.096000000
FromStats_FrameCount                     : 180878
FromStats_StreamSize                     : 277828608

Текст
Идентификатор                            : 3
Формат                                   : VobSub
Режим смешивания                         : zlib
Идентификатор кодека                     : S_VOBSUB
Идентификатор кодека/Информация          : Picture based subtitle format used on DVDs
Язык                                     : English
Default                                  : Нет
Forced                                   : Нет
Statistics Tags Issue                    : mkvmerge v21.0.0 ('Tardigrades Will Inherit The Earth') 64-bit 2018-03-16 15:19:41 / mkvmerge v21.0.0 ('Tardigrades Will Inherit The Earth') 64-bit 2018-03-16 15:19:41 / UTC 2018-03-14T22:51:57Z
FromStats_BitRate                        : 3485
FromStats_Duration                       : 01:31:50.272000000
FromStats_FrameCount                     : 837
FromStats_StreamSize                     : 2400916

Меню
00:00:00.120                             : :Chapter 1
00:00:20.240                             : :Chapter 2
00:08:22.000                             : :Chapter 3
00:15:31.080                             : :Chapter 4
00:23:45.920                             : :Chapter 5
00:31:52.400                             : :Chapter 6
00:39:45.160                             : :Chapter 7
00:48:38.560                             : :Chapter 8
00:59:02.640                             : :Chapter 9
01:08:59.160                             : :Chapter 10
01:13:54.640                             : :Chapter 11
01:18:51.560                             : :Chapter 12
01:24:38.440                             : :Chapter 13
01:29:50.080                             : :Chapter 14

скриншот  скриншот  скриншот  
piratbit.pw



Скачать Подарок Сталину через торрент http://images.vfl.ru/ii/1520713240/c2b145a6/20906132.jpg Скачать фильм Подарок Сталину через торрент бесплантно в хорошем качестве Описание: События происходят в 1949 году, когда началась очередная волна репрессий, и людей отправляли в ссылки или просто лишали жизни. ... 10 10 2
Торрент: Зарегистрирован [2019-08-13 18:47] · скачан: 10 раз
Статус: √ проверено
Размер: 1.35 GB
Как cкачать? Как скачать Подарок Сталину через торрент | qTorrent

28-11-2019 20:33  

Отключить всю рекламу на сайте

13-08-2019 21:04 Подарок Сталину Скачать торрент  

Вождь писал(а):

Спасибо, дорогой. Езжай на лесоповал

piratbit.pw



    Дорогой пользователь! Огромная просьба, поблагодарите релизера, оцените раздачу и оставьте свои комментарий, если Вы скачали Подарок Сталину через торрент бесплатно! Внесите свою лепту в развитие PiratBit!
    Комментировать посты могут только пользователи прошедшие не сложную регистрацию
    Показать сообщения:    

    Подарок Сталину через торрент
    Скачать бесплатно Подарок Сталину
    Подарок Сталину скачать торрент
    Подарок Сталину смотреть онлайн
    Cкачать фильм Подарок Сталину бесплатно
    Подарок Сталину скачать торрент в хорошем качестве
    Подарок Сталину смотреть онлайн бесплатно в хорошем качестве


    Вы не можете начинать темы
    Вы не можете отвечать на сообщения
    Вы не можете редактировать свои сообщения
    Вы не можете удалять свои сообщения
    Вы не можете голосовать в опросах
    Вы не можете прикреплять файлы к сообщениям
    Вы можете скачивать файлы