MEGA SALE -75% Borderlands 3 Super Deluxe всего за 550р. 180 руб. (супер цена). Внимание количество ограничено!!!

iTunes

1+1

iTunes

мы

iTunes

1

iTunes

Чернобыль

iTunes

Ральф против интернета

Лицензия

ПШазам

Лицензия

Игра престолов

Лицензия

30
pack

ВАЖНО

!!Акция!!

Alien_RageХит недели

RePack

Resident Evil 21

ИГРА 18+

pack

RePack

Metro:Exodus

!!Акция!!

Alien_Rage

RePack

fifa19

RePack

Assassins Creed: Odyssey

RePack

NEED FOR SPEED™ PAYBACK

3 сезон

9 сезон

Бесстыжие 9 сезон

Все сериалы

все сериалы на PB.wtf

RePack

FAR CRY 5
Ребята, катастрофически не хватает 1900р. для оплаты серверов за АВГУСТ (всвязи с блокировками трафик упал в 3 раза), 1-2р., выручайте.
  

Террор / The Terror / Сезон: 2 / Серии: 1-9 из 10 (Эдвард Бергер) [2019, Ужасы, драма, WEB-DL 720p] [MVO] (AMS) piratbit.pw

Террор через торрент piratbit.pw

Размер: 13 GB | Добавлен: 4 д. назад | Торрент скачан:0 раз
Скачать  

12-08-2019 17:41 Террор Скачать торрент  

Террор | The Terror

Год выпуска: 2019
Страна: США
Жанр: Ужасы, драма
Продолжительность: ~ 00:43:00
Перевод: Профессиональный ( многоголосый закадровый) - AMS

Режиссёр: Милантс, Эдвард Бергер, Серджо Мимика-Геззан

В ролях: Джаред Харрис, Киаран Хайндс, Тобайас Мензис, Крис Корригэн, Иэн Харт, Кристос Лоутон, Мэттью МакНалти, Адам Нагаитис, Нив Нилсен, Пол Рэди, Себастьян Арместо, Эдвард Эшли, Майки Коллинз, Кевин Гатри, Аарон Джеффкот, Дэвид Уолмсли, Гай Фолкнер, Лиам Гэрриган, Чарли Келли, Кэролайн Болтон

Описание: В 1942 году в разгар Второй мировой войны президент США санкционировал интернирование, в результате чего около 120 тысяч японцев, живших в Америке, были насильственно выселены с Тихоокеанского побережья и помещены в специальные лагеря. Вместе с интернированными там оказалось нечто древнее и зловещее.

rating

Качество: WEB-DL 720p
Формат: MKV
Видео: X264, 1280x720 at 23.976 fps, ~2500 kbps avg
Аудио1: Russian, AC3, 48 kHz, 6 ch, 640 kbps
Аудио2: English, EAC3, 48 kHz, 6 ch, 640 kbps
Субтитры: английские (Softsub SRT)
General
Unique ID : 163858358714521221326015620241173649425 (0x7B45F8D2EFE3677E579600E460EE1811)
Complete name :/The.Terror.S02.720p.WEB-DL.AMS/The.Terror.S02E01.720p.WEB-DL.AMS.mkv
Format : Matroska
Format version : Version 4
File size : 1.55 GiB
Duration : 51mn 37s
Overall bit rate : 4 298 Kbps
Movie name : The Terror 2x01 - MVO AMS
Encoded date : UTC 2019-08-17 12:30:07
Writing application : mkvmerge v8.2.0 ('World of Adventure') 64bit
Writing library : libebml v1.3.1 + libmatroska v1.4.2

Video
ID : 1
Format : AVC
Format/Info : Advanced Video Codec
Format profile : High@L3.1
Format settings : CABAC / 4 Ref Frames
Format settings, CABAC : Yes
Format settings, ReFrames : 4 frames
Codec ID : V_MPEG4/ISO/AVC
Duration : 51mn 37s
Bit rate mode : Constant
Bit rate : 3 015 Kbps
Nominal bit rate : 6 000 Kbps
Width : 1 280 pixels
Height : 720 pixels
Display aspect ratio : 16:9
Frame rate mode : Constant
Frame rate : 23.976 (24000/1001) fps
Color space : YUV
Chroma subsampling : 4:2:0
Bit depth : 8 bits
Scan type : Progressive
Bits/(Pixel*Frame) : 0.136
Stream size : 1.09 GiB (70%)
Title : The Terror 2x01 - MVO AMS
Default : Yes
Forced : No
Color range : Limited
Color primaries : BT.709
Transfer characteristics : BT.709
Matrix coefficients : BT.709

Audio #1
ID : 2
Format : AC-3
Format/Info : Audio Coding 3
Commercial name : Dolby Digital
Codec ID : A_AC3
Duration : 51mn 37s
Bit rate mode : Constant
Bit rate : 640 Kbps
Channel(s) : 6 channels
Channel layout : L R C LFE Ls Rs
Sampling rate : 48.0 KHz
Frame rate : 31.250 fps (1536 SPF)
Bit depth : 16 bits
Compression mode : Lossy
Stream size : 236 MiB (15%)
Title : MVO AMS
Language : Russian
Service kind : Complete Main
Default : Yes
Forced : No

Audio #2
ID : 3
Format : E-AC-3
Format/Info : Enhanced AC-3
Commercial name : Dolby Digital Plus
Codec ID : A_EAC3
Duration : 51mn 37s
Bit rate mode : Constant
Bit rate : 640 Kbps
Channel(s) : 6 channels
Channel layout : L R C LFE Ls Rs
Sampling rate : 48.0 KHz
Frame rate : 31.250 fps (1536 SPF)
Compression mode : Lossy
Stream size : 236 MiB (15%)
Title : Original
Language : English
Service kind : Complete Main
Default : No
Forced : No

Text
ID : 4
Format : UTF-8
Codec ID : S_TEXT/UTF8
Codec ID/Info : UTF-8 Plain Text
Duration : 45mn 34s
Bit rate : 40 bps
Count of elements : 493
Stream size : 13.5 KiB (0%)
Title : eng-subs
Language : English
Default : No
Forced : No
скриншот  скриншот  скриншот  
Когда раздача ведётся путём добавления новых серий, при каждом добавлении создётся новый торрент. Чтобы начать докачку новой серии, пользователям необходимо сделать следующее:
(1) остановить скачивание,
(2) удалить старый торрент у себя из клиента (старые серии удалять не надо),
(3) скачать новый торрент и запустить его у себя в клиенте вместо старого, при этом указать клиенту путь в старую папку, куда и должно происходить скачивание новых серий.
Ваш клиент при этом должен произвести хеширование (проверку) старой папки (если не производит сам - помогите ему сделать это), и будет докачивать только те серии, которых у вас ещё нет. Старые серии при этом не удаляются, а продолжают раздаваться!
Eсли вы уже удалили старые серии, то предотвратить повторную закачку старых серий можно, отжав галочку в соответсвующих местах при запуске нового торрента. По возможности, желательно не удалять старые серии как можно дольше, чтобы релизёр не столько продолжал раздавать старые серии, а смог сконцентрироваться на новых.
piratbit.pw



Скачать Террор через торрент https://i89.fastpic.ru/big/2019/0812/5a/a4f66ee8f2e4e4ca3d0ced6a628d0b5a.jpg Скачать фильм Террор через торрент бесплантно в хорошем качестве Описание: В 1942 году в разгар Второй мировой войны президент США санкционировал интернирование, в результате чего около 120 тысяч японцев, ... 10 10 2
Торрент: Зарегистрирован [2019-10-09 20:37] · скачан: 0 раз
Статус: √ проверено
Размер: 13 GB
Как cкачать? Как скачать Террор через торрент | qTorrent

% Раздел Тема Автор DL S | L
Зарубежные сериалы [ 7.85 GB ] Террор / The Terror / Сезон: 2 / Серии: 1-9 из 10 [2019 WEB-DLRip] [MVO] killermax2013 Скачать
1 | 1
Зарубежные сериалы [ 12.85 GB ] Террор / The Terror / Сезон: 2 / Серии: 1-9 из 10 [2019 WEB-DL 720p] [MVO] killermax2013 Скачать
1 | 0
Зарубежные сериалы [ 5.47 GB ] Террор / The Terror / Сезон: 2 / Серии: 1-9 из 10 [2019 история WEB-DLRip] MVO [LostFilm] bober100 Скачать
3 | 1
Зарубежные сериалы [ 26.3 GB ] Террор / The Terror / Сезон: 2 / Серия: 1-9 из 10 [2019 история WEB-DL 1080p] MVO [LostFilm] bober100 Скачать
2 | 0
Зарубежные сериалы [ 17.02 GB ] Террор / The Terror / Сезон: 2 / Серии: 1-9 из 10 [2019 WEBRip 1080p] MVO [Profix Media] bober100 Скачать
1 | 0
Зарубежные сериалы [ 8.66 GB ] Террор / The Terror / Сезон: 2 / Серии: 1-9 из 10 [2019 WEBRip 720p] MVO [Profix Media] bober100 Скачать
1 | 0
Зарубежные сериалы [ 4.52 GB ] Террор / The Terror / Сезон: 2 / Серии: 1-9 из 10 [2019 WEBRip] MVO [Profix Media] bober100 Скачать
1 | 0


>> Регистрируемся здесь <<






Отзывы и комментарии о схеме читаем и пишем здесь: ---> Отзывы и комментарии о схеме

Новые благодарочки в телеграм довольных пользователей:
скриншот   скриншот   скриншот   скриншот   скриншот
    Дорогой пользователь! Огромная просьба, поблагодарите релизера, оцените раздачу и оставьте свои комментарий, если Вы скачали Террор через торрент бесплатно! Внесите свою лепту в развитие PiratBit!
    Комментировать посты могут только пользователи прошедшие не сложную регистрацию
    Показать сообщения:    

    Террор через торрент
    Скачать бесплатно Террор
    Террор скачать торрент
    Террор смотреть онлайн
    Cкачать фильм Террор бесплатно
    Террор скачать торрент в хорошем качестве
    Террор смотреть онлайн бесплатно в хорошем качестве


    Вы не можете начинать темы
    Вы не можете отвечать на сообщения
    Вы не можете редактировать свои сообщения
    Вы не можете удалять свои сообщения
    Вы не можете голосовать в опросах
    Вы не можете прикреплять файлы к сообщениям
    Вы можете скачивать файлы