новый адрес
Ссылка на приватное зеркало всего за 1$. Внимание количество ограничено!!!

iTunes

1+1

iTunes

мы

WEB-DL

1

iTunes

Чернобыль

iTunes

Ральф против интернета

Лицензия

ПШазам

Лицензия

Оно 2

Лицензия

30
pack

Вам бонус

ВАЖНО

!!Акция!!

Alien_RageХит недели

RePack

Resident Evil 21

ИГРА 18+

pack

RePack

jed

!!Акция!!

Alien_Rage

RePack

fifa19

RePack

Assassins Creed: Odyssey

RePack

NEED FOR SPEED™ PAYBACK

3 сезон

9 сезон

Бесстыжие 9 сезон

Все сериалы

все сериалы на PB.wtf

RePack

FAR CRY 5
Ребята, катастрофически не хватает 1900р. для оплаты серверов за Октябрь (всвязи с блокировками трафик упал в 3 раза), 1-2р., выручайте.
  

Угоняя лошадей / Ut og stjæle hester (Ханс Петтер Муланд) [2019 г., драма, детектив, WEB-DLRip, Профессиональный многоголосый закадровый "iTunes"] piratbit.pw

Угоняя лошадей через торрент piratbit.pw

Раздают: 3 [ 0 KB/s ]
Размер: 702 MB | Добавлен: 3 мес. 26 д. назад | Торрент скачан:38 раз
Скачать  

11-08-2019 18:26 Угоняя лошадей Скачать торрент  

Угоняя лошадей / Ut og stjæle hester
Год выпуска: 2019
Страна: Норвегия, Швеция, Дания / 4 1/2 Film, 4 1/2 Fiksjon, Helgeland Film
Жанр: драма, детектив
Продолжительность: 01:58:03
Перевод: Профессиональный многоголосый закадровый (iTunes)

Режиссер: Ханс Петтер Муланд

rating

В ролях: Стеллан Скарсгард, Тобиас Зантельман, Джон Рейнс, Бьёрн Флоберг, Даница Чурчич, Сьюр Ватне Бреан, Гард Б. Эйдсвольд, Пол Сверре Валхейм Хаген, Андерс Баасмо Кристиансен, Торбьорн Харр

Описание: Накануне прихода нового тысячелетия Тронд Сандер уезжает из Осло в деревню. Год подходит к концу, одиночество непреодолимо. И лишь призраки прошлого настигают Тронда с всё большей уверенностью. Но однажды Сандер встречает старого знакомого, который заставляет его вернуться воспоминаниями в юношество. Туда, где яркие краски лета и грациозные дикие лошади были декорациями первому страшному опыту познания чужой смерти. Туда, где радость переплеталась с предательством и разочарованием. Туда, откуда берут начало личные трагедии и самые счастливые моменты в жизни.

Качество: WEB-DLRip
Формат: AVI
Видео кодек: XviD
Аудио кодек: MP3
Видео: 672x280 (2.40:1), 25 fps, XviD build 50 ~693 kbps avg, 0.15 bit/pixel
Аудио: 48 kHz, MPEG Layer 3, 2 ch, ~128.00 kbps avg
скриншот   скриншот   скриншот   скриншот   скриншот   скриншот   скриншот   скриншот  

Общее
Полное имя : F:\ФИЛЬМЫ\Угоняя лошадей.2019..WEB-DLRip.avi
Формат : AVI
Формат/Информация : Audio Video Interleave
Размер файла : 702 Мбайт
Продолжительность : 1 ч. 58 м.
Общий поток : 832 Кбит/сек
Программа кодирования : VirtualDubMod 1.5.10.3 | www.virtualdub-fr.org || (build 2550/release)
Библиотека кодирования : VirtualDubMod build 2550/release

Видео
Идентификатор : 0
Формат : MPEG-4 Visual
Профиль формата : Advanced Simple@L5
Настройки формата : BVOP3 / GMC3 / QPel
Параметр BVOP формата : 3
Параметр QPel формата : Да
Параметр GMC формата : 3 точки перехода
Параметр матрицы формата : Default (MPEG)
Идентификатор кодека : XVID
Идентификатор кодека/Подсказка : XviD
Продолжительность : 1 ч. 58 м.
Битрейт : 694 Кбит/сек
Ширина : 672 пикселя
Высота : 280 пикселей
Соотношение сторон : 2,40:1
Частота кадров : 25,000 кадров/сек
Цветовое пространство : YUV
Субдискретизация насыщенности : 4:2:0
Битовая глубина : 8 бит
Тип развёртки : Прогрессивная
Метод сжатия : С потерями
Бит/(Пиксели*Кадры) : 0.148
Размер потока : 586 Мбайт (83%)
Библиотека кодирования : XviD 1.2.1 (UTC 2008-12-04)

Аудио
Идентификатор : 1
Формат : MPEG Audio
Версия формата : Version 1
Профиль формата : Layer 3
Настройки формата : Joint stereo / MS Stereo
Идентификатор кодека : 55
Идентификатор кодека/Подсказка : MP3
Продолжительность : 1 ч. 58 м.
Вид битрейта : Постоянный
Битрейт : 128 Кбит/сек
Каналы : 2 канала
Частота : 48,0 КГц
Частота кадров : 41,667 кадра/сек (1152 SPF)
Метод сжатия : С потерями
Размер потока : 108 Мбайт (15%)
Выравнивание : Соединение по промежуткам
Продолжительность промежутка : 40 мс. (1,00 видеокадр)
Время предзагрузки промежутка : 504 мс.
Библиотека кодирования : LAME3.99r
Настройки программы : -m j -V 4 -q 2 -lowpass 17 -b 128

piratbit.pw



Скачать Угоняя лошадей через торрент http://pic1.kartinco.top/images/12/zcdin.jpg Скачать фильм Угоняя лошадей через торрент бесплантно в хорошем качестве Описание: Накануне прихода нового тысячелетия Тронд Сандер уезжает из Осло в деревню. Год подходит к концу, одиночество непреодолимо. И ... 5 10 1
Торрент: Зарегистрирован [2019-08-11 18:26] · скачан: 38 раз
Статус: √ проверено
Размер: 702 MB
Как cкачать? Как скачать Угоняя лошадей через торрент | qTorrent

% Раздел Тема Автор DL S | L
Фильмы 2019 [DVDrip, WEB-DLRip, HDrip] (DUB, MVO) [ 1.45 GB ] Угоняя лошадей / Ut og stjæle hester [2019 WEB-DLRip] MVO bober100 Скачать
6 | 0
Фильмы (WEB-DL 720p, 1080p) [ 4.07 GB ] Угоняя лошадей / Ut og stjæle hester [2019 WEB-DL 1080p] MVO bober100 Скачать
7 | 0

28-11-2019 20:33  

Отключить всю рекламу на сайте

    Дорогой пользователь! Огромная просьба, поблагодарите релизера, оцените раздачу и оставьте свои комментарий, если Вы скачали Угоняя лошадей через торрент бесплатно! Внесите свою лепту в развитие PiratBit!
    Комментировать посты могут только пользователи прошедшие не сложную регистрацию
    Показать сообщения:    

    Угоняя лошадей через торрент
    Скачать бесплатно Угоняя лошадей
    Угоняя лошадей скачать торрент
    Угоняя лошадей смотреть онлайн
    Cкачать фильм Угоняя лошадей бесплатно
    Угоняя лошадей скачать торрент в хорошем качестве
    Угоняя лошадей смотреть онлайн бесплатно в хорошем качестве


    Вы не можете начинать темы
    Вы не можете отвечать на сообщения
    Вы не можете редактировать свои сообщения
    Вы не можете удалять свои сообщения
    Вы не можете голосовать в опросах
    Вы не можете прикреплять файлы к сообщениям
    Вы можете скачивать файлы