1 сезон

1 сезон

iTunes

1

КиноПоиск HD

Кинопоиск HD

iTunes

13

1 сезон

RePack

30

Ultimate

ВАЖНО

ИГРА 18+

pack

RePack

MK11
pack

Легкие деньги

RePack

jed

RePack

fifa19

RePack

RDR2

RePack

NEED FOR SPEED™ PAYBACK

4 сезон

9 сезон

Бесстыжие 9 сезон

Все сериалы

все сериалы на PB.wtf

RePack

FAR CRY 5
  
Magnet ссылка

Паприка / Paprika (Тинто Брасс) [1991 г., эротика, мелодрама, драма, BDRip] AVO (Л.Володарский) piratbit.pw

Паприка через торрент piratbit.pw

Размер: 2.18 GB | Добавлен: 1 год 8 мес. назад | Торрент скачан:52 раза
Скачать  

11-08-2019 12:06 Паприка Скачать торрент  

Паприка / Paprika
Год выпуска: 1991

Страна: Италия

Жанр: Эротика, мелодрама, драма

Продолжительность: 01:55:51

Перевод: Авторский (одноголосый) - Л.Володарский

Режиссер: Тинто Брасс

rating

В ролях: Дебора Каприольо, Стефан Феррара, Мартин Брошар, Стефани Бонне, Росанна Гавинель, Ренцо Ринальди, Нина Сольдано, Клара Альгранти, Лучиана Чиренеи, Элизабет Газа, Джон Стайнер, Валентина Деми, Луиджи Лаэцца, Риккардо Гарроне

Описание: Чудесный сплав чувственности, тонкой наблюдательности, зрелой мудрости и сатиры, музыки, образа и цвета от неповторимого Маэстро эротики. Мы знакомимся с дружным коллективом публичного дома, куда из провинции поступает "новенькая" - очаровательная и безумно сексуальная красавица, получающая от коллег имя Паприка. У "девочки" оказался талант - и, приехав из-за нужды на две недели, она осталась, решив сделать это профессией своей жизни. Вскоре она уже переезжает в Рим, и карьера ее идет в гору. Этой бурной карьере, завершающейся браком с богатым графом (прожил он недолго), и посвящается все экранное время, а любила она только своего первого клиента-моряка. Удивительно, как при крайней откровенности автору удается совершенно избежать пошлости. Однако я не советую смотреть эту ленту молодым, даже если им исполнилось 18, так как оценить эту картину по достоинству можно, лишь обладая определенным "жизненным багажом".
Качество: BDRip
Формат: AVI
Видео: XviD, 2292 Кбит/с, 720x432
Аудио#1: Русский, AC3, 2 ch, 192 Кбит/с
Аудио#2: Итальянский, AC3, 2 ch, 192 Кбит/с
Видео
Идентификатор : 0
Формат : MPEG-4 Visual
Профиль формата : Advanced Simple@L5
Настройки формата : BVOP1 / Custom Matrix
Параметр BVOP формата : 1
Параметр QPel формата : Нет
Параметр GMC формата : Без точки перехода
Параметр матрицы формата : Выборочная
Идентификатор кодека : XVID
Идентификатор кодека/Подсказка : XviD
Продолжительность : 1 ч. 55 м.
Битрейт : 2292 Кбит/сек
Ширина : 720 пикселей
Высота : 432 пикселя
Соотношение сторон : 5:3
Частота кадров : 23,976 (24000/1001) кадра/сек
Цветовое пространство : YUV
Субдискретизация насыщенности : 4:2:0
Битовая глубина : 8 бит
Тип развёртки : Прогрессивная
Метод сжатия : С потерями
Бит/(Пиксели*Кадры) : 0.307
Размер потока : 1,85 Гбайт (85%)
Библиотека кодирования : XviD 73

Аудио #1
Идентификатор : 1
Формат : AC-3
Формат/Информация : Audio Coding 3
Коммерческое название : Dolby Digital
Идентификатор кодека : 2000
Продолжительность : 1 ч. 55 м.
Вид битрейта : Постоянный
Битрейт : 192 Кбит/сек
Каналы : 2 канала
Channel layout : L R
Частота : 48,0 КГц
Частота кадров : 31,250 кадров/сек (1536 SPF)
Битовая глубина : 16 бит
Метод сжатия : С потерями
Размер потока : 159 Мбайт (7%)
Выравнивание : Разделение по промежуткам
Продолжительность промежутка : 42 мс. (1,00 видеокадр)
Время предзагрузки промежутка : 500 мс.
ServiceKind/String : Complete Main

Аудио #2
Идентификатор : 2
Формат : AC-3
Формат/Информация : Audio Coding 3
Коммерческое название : Dolby Digital
Идентификатор кодека : 2000
Продолжительность : 1 ч. 55 м.
Вид битрейта : Постоянный
Битрейт : 192 Кбит/сек
Каналы : 2 канала
Channel layout : L R
Частота : 48,0 КГц
Частота кадров : 31,250 кадров/сек (1536 SPF)
Битовая глубина : 16 бит
Метод сжатия : С потерями
Размер потока : 159 Мбайт (7%)
Выравнивание : Разделение по промежуткам
Продолжительность промежутка : 42 мс. (1,00 видеокадр)
Время предзагрузки промежутка : 500 мс.
ServiceKind/String : Complete Main

скриншот   скриншот   скриншот   скриншот   скриншот  

piratbit.pw



Скачать Паприка через торрент https://pic1.kartinco.top/images/12/bp2fh.jpg Скачать фильм Паприка через торрент бесплантно в хорошем качестве Описание: Чудесный сплав чувственности, тонкой наблюдательности, зрелой мудрости и сатиры, музыки, образа и цвета от неповторимого Маэстро ... 10 10 3
Торрент: Зарегистрирован [2019-08-11 12:06] · скачан: 52 раз
Статус: √ проверено
Размер: 2.18 GB
Как cкачать? Как скачать Паприка через торрент | UTorrent

% Раздел Тема Автор DL S | L
Фильмы (HD 720p, 1080p) (48-60 fps) [ 3.56 GB ] Паприка / Paprika [1990 BDRip - HEVC 1080p 10 bit 60 FPS] [одноголосый] dd2d3 Скачать
2 | 0
Порно фильмы с русским переводом [ 1.65 GB ] Паприка. / Paprika / Paprika: the Last Italian Whore / Anal Paprika. [1995 Feature European Classic Couples Anal A2M. DVDRip одноголосый] Pir@tya2010 Скачать
1 | 1
Эротические и Документальные фильмы [ 2.03 GB ] Паприка / Paprika [1990 Эротика DVDRip-AVC двухголосый] alexybuzich Скачать
1 | 0

28-11-2019 20:33  

Отключить всю рекламу на сайте

    Дорогой пользователь! Огромная просьба, поблагодарите релизера, оцените раздачу и оставьте свои комментарий, если Вы скачали Паприка через торрент бесплатно! Внесите свою лепту в развитие PiratBit!
    Комментировать посты могут только пользователи прошедшие не сложную регистрацию
    Показать сообщения:    

    Паприка через торрент
    Скачать бесплатно Паприка
    Паприка скачать торрент
    Паприка смотреть онлайн
    Cкачать фильм Паприка бесплатно
    Паприка скачать торрент в хорошем качестве
    Паприка смотреть онлайн бесплатно в хорошем качестве


    Вы не можете начинать темы
    Вы не можете отвечать на сообщения
    Вы не можете редактировать свои сообщения
    Вы не можете удалять свои сообщения
    Вы не можете голосовать в опросах
    Вы не можете прикреплять файлы к сообщениям
    Вы можете скачивать файлы