MEGA SALE -50% FORZA HORIZON 4 ULTIMATE+ВСЕ DLC+ОНЛАЙН всего за 599р. 299 руб. (супер цена). Внимание количество ограничено!!!

iTunes

1+1

iTunes

мы

iTunes

1

iTunes

Чернобыль

iTunes

Ральф против интернета

Лицензия

ПШазам

Лицензия

Игра престолов

Лицензия

30
pack

ВАЖНО

!!Акция!!

Alien_RageХит недели

RePack

Resident Evil 21

ИГРА 18+

pack

RePack

Metro:Exodus

!!Акция!!

Alien_Rage

RePack

fifa19

RePack

Assassins Creed: Odyssey

RePack

NEED FOR SPEED™ PAYBACK

3 сезон

9 сезон

Бесстыжие 9 сезон

Все сериалы

все сериалы на PB.wtf

RePack

FAR CRY 5
Ребята, катастрофически не хватает 7730р. для оплаты серверов за АВГУСТ (всвязи с блокировками трафик упал в 3 раза), 1-2р., выручайте.
  

Пандора / Pandora / Сезон: 1 / Серии: 1-9 из 13 (Стивен Хьюз, Бретт Симмонс, Кристиан Госсетт) [2019, Боевик, фантастика, драма, WEB-DL 1080p] MVO [TVShows] piratbit.pw

Пандора через торрент piratbit.pw

Размер: 24.8 GB | Добавлен: 2 д. 16 ч. назад | Торрент скачан:0 раз
Скачать  

09-08-2019 14:59 Пандора Скачать торрент  

Пандора / Pandora
Год выпуска: 2019
Страна: США
Жанр: Боевик, фантастика, драма
Продолжительность: 0:42:00
Перевод: Профессиональный (многоголосый закадровый) | TVShows
Субтитры: Английские

Режиссёр: Стивен Хьюз, Бретт Симмонс, Кристиан Госсетт

В ролях: Карина Банно, Ти Джэй Дженкенс, Бен Рэдклифф, Темина Санни, Ной Хантли, Рашель Банно, Присцилла Квинтана

Описание: 2199-й год. Потерявшая всё Джакс начинает новую жизнь в космической академии, где вместе с друзьями учится защищать планету от человеческих и инопланетных угроз. Однако правда о прошлом девушки может как спасти Вселенную, так и уничтожить её.

rating

Качество: WEB-DL 1080p
Контейнер: MKV

Видео: MPEG-4 AVC, 1920x1080, 23.976 fps, ~9463 Kbps
Аудио 1: AC3, 48 КГц, 6 ch, 384 Кбит/с
Аудио 2: E-AC3, 48 КГц, 6 ch, 640 Кбит/с


Реклама: Отсутствует
General
Unique ID : 126104817741903991913075734834945553398 (0x5EDEE78AD3640E648D18F123D61173F6)
Complete name : Pandora.S01E01.1080p.TVShows.mkv
Format : Matroska
Format version : Version 4 / Version 2
File size : 3.12 GiB
Duration : 42 min 32 s
Overall bit rate : 10.5 Mb/s
Encoded date : UTC 2019-07-19 14:20:50
Writing application : mkvmerge v33.1.0 ('Primrose') 64-bit
Writing library : libebml v1.3.7 + libmatroska v1.5.0

Video
ID : 1
Format : AVC
Format/Info : Advanced Video Codec
Format profile : High@L4
Format settings : CABAC / 4 Ref Frames
Format settings, CABAC : Yes
Format settings, ReFrames : 4 frames
Codec ID : V_MPEG4/ISO/AVC
Duration : 42 min 32 s
Bit rate mode : Constant
Bit rate : 9 463 kb/s
Nominal bit rate : 10 000 kb/s
Width : 1 920 pixels
Height : 1 080 pixels
Display aspect ratio : 16:9
Frame rate mode : Constant
Frame rate : 23.976 (24000/1001) FPS
Color space : YUV
Chroma subsampling : 4:2:0
Bit depth : 8 bits
Scan type : Progressive
Bits/(Pixel*Frame) : 0.190
Stream size : 2.81 GiB (90%)
Default : Yes
Forced : No
Color range : Limited
Color primaries : BT.709
Transfer characteristics : BT.709
Matrix coefficients : BT.709

Audio #1
ID : 2
Format : AC-3
Format/Info : Audio Coding 3
Codec ID : A_AC3
Duration : 42 min 32 s
Bit rate mode : Constant
Bit rate : 384 kb/s
Channel(s) : 6 channels
Channel positions : Front: L C R, Side: L R, LFE
Sampling rate : 48.0 kHz
Frame rate : 31.250 FPS (1536 SPF)
Bit depth : 16 bits
Compression mode : Lossy
Stream size : 117 MiB (4%)
Title : TVShows
Language : Russian
Service kind : Complete Main
Default : Yes
Forced : Yes

Audio #2
ID : 3
Format : E-AC-3
Format/Info : Enhanced Audio Coding 3
Codec ID : A_EAC3
Duration : 42 min 32 s
Bit rate mode : Constant
Bit rate : 640 kb/s
Channel(s) : 6 channels
Channel positions : Front: L C R, Side: L R, LFE
Sampling rate : 48.0 kHz
Frame rate : 187.500 FPS (256 SPF)
Compression mode : Lossy
Stream size : 195 MiB (6%)
Title : Original
Language : English
Service kind : Complete Main
Default : No
Forced : No

Text
ID : 4
Format : UTF-8
Codec ID : S_TEXT/UTF8
Codec ID/Info : UTF-8 Plain Text
Duration : 41 min 38 s
Bit rate : 80 b/s
Count of elements : 757
Stream size : 24.6 KiB (0%)
Title : English
Language : English
Default : No
Forced : No
скриншот  скриншот  скриншот  скриншот  
Когда раздача ведётся путём добавления новых серий, при каждом добавлении создётся новый торрент. Чтобы начать докачку новой серии, пользователям необходимо сделать следующее:
(1) остановить скачивание,
(2) удалить старый торрент у себя из клиента (старые серии удалять не надо),
(3) скачать новый торрент и запустить его у себя в клиенте вместо старого, при этом указать клиенту путь в старую папку, куда и должно происходить скачивание новых серий.
Ваш клиент при этом должен произвести хеширование (проверку) старой папки (если не производит сам - помогите ему сделать это), и будет докачивать только те серии, которых у вас ещё нет. Старые серии при этом не удаляются, а продолжают раздаваться!
Eсли вы уже удалили старые серии, то предотвратить повторную закачку старых серий можно, отжав галочку в соответсвующих местах при запуске нового торрента. По возможности, желательно не удалять старые серии как можно дольше, чтобы релизёр не столько продолжал раздавать старые серии, а смог сконцентрироваться на новых.
piratbit.pw



Скачать Пандора через торрент https://i86.fastpic.ru/big/2019/0809/1e/e7d05e2409e0c2c4e8eabd4c9fd2041e.jpg Скачать фильм Пандора через торрент бесплантно в хорошем качестве Описание: 2199-й год. Потерявшая всё Джакс начинает новую жизнь в космической академии, где вместе с друзьями учится защищать планету от ... 10 10 3
Торрент: Зарегистрирован [2019-09-14 00:27] · скачан: 0 раз
Статус: √ проверено
Размер: 24.8 GB
Как cкачать? Как скачать Пандора через торрент | qTorrent

% Раздел Тема Автор DL S | L
Зарубежные сериалы [ 26.92 GB ] Пандора / Pandora / Сезон: 1 / Серии: 1-9 из 13 [2019 WEB-DL 1080p] MVO [Lostfilm] bober100 Скачать
1 | 1
T Зарубежные сериалы [ 8.83 GB ] Пандора / Pandora / Сезон: 1 / Серии: 1-9 из 13 [2019 WEBRip 720p] DVO [Kerob] bober100 Скачать
2 | 2
Зарубежные сериалы [ 8.18 GB ] Пандора / Pandora / Сезон: 1 / Серии: 1-9 из 13 [2019 WEBRip 720p] MVO [Jaskier] bober100 Скачать
1 | 0
Зарубежные сериалы [ 4.63 GB ] Пандора / Pandora / Сезон: 1 / Серии: 1-9 из 13 [2019 WEBRip] MVO [Jaskier] bober100 Скачать
4 | 0
T Зарубежные сериалы [ 3.6 GB ] Пандора / Pandora / Сезон: 1 / Серии: 1-9 из 13 [2019 WEBRip] DVO [Kerob] bober100 Скачать
2 | 2


>> Регистрируемся здесь <<






Отзывы и комментарии о схеме читаем и пишем здесь: ---> Отзывы и комментарии о схеме

Новые благодарочки в телеграм довольных пользователей:
скриншот   скриншот   скриншот   скриншот   скриншот
    Дорогой пользователь! Огромная просьба, поблагодарите релизера, оцените раздачу и оставьте свои комментарий, если Вы скачали Пандора через торрент бесплатно! Внесите свою лепту в развитие PiratBit!
    Комментировать посты могут только пользователи прошедшие не сложную регистрацию
    Показать сообщения:    

    Пандора через торрент
    Скачать бесплатно Пандора
    Пандора скачать торрент
    Пандора смотреть онлайн
    Cкачать фильм Пандора бесплатно
    Пандора скачать торрент в хорошем качестве
    Пандора смотреть онлайн бесплатно в хорошем качестве


    Вы не можете начинать темы
    Вы не можете отвечать на сообщения
    Вы не можете редактировать свои сообщения
    Вы не можете удалять свои сообщения
    Вы не можете голосовать в опросах
    Вы не можете прикреплять файлы к сообщениям
    Вы можете скачивать файлы