Marvel's Avengers Deluxe Edition (супер цена) 159р. Внимание количество ограничено!!!

2 сезон

iTunes

iTunes

1

iTunes

iTunes

iTunes

WEBRip

iTunes

30
pack

Новость дня

ВАЖНО

!!Акция!!

Alien_RageХит недели

RePack

Horizon Zero Dawn

ИГРА 18+

pack

RePack

jed

!!Акция!!

Alien_Rage

RePack

fifa19

RePack

Assassins Creed: Odyssey

RePack

NEED FOR SPEED™ PAYBACK

4 сезон

9 сезон

Бесстыжие 9 сезон

Все сериалы

все сериалы на PB.wtf

RePack

FAR CRY 5
  

Холодное лето пятьдесят третьего... (Александр Прошкин) [1987, драма, HDTVRip 720р от KORSAR] piratbit.pw

Холодное лето пятьдесят третьего... через торрент piratbit.pw

Размер: 3.46 GB | Добавлен: 1 год 1 мес. назад | Торрент скачан:28 раз
Скачать  

06-08-2019 16:14 Холодное лето пятьдесят третьего... Скачать торрент  

Холодное лето пятьдесят третьего...
Жанр: драма
Год выпуска: 1987
Продолжительность: 1:36:10
Субтитры: русские, английские
Режиссёр: Александр Прошкин
В ролях: Валерий Приёмыхов, Анатолий Папанов, Юрий Кузнецов, Владимир Кашпур, Нина Усатова, Виктор Степанов, Зоя Буряк, Владимир Головин, Алексей Колесник, Андрей Дударенко, Александр Завьялов, Виктор Косых, Сергей Власов, Елизавета Солодова, Борис Плотников

Описание: 1953 год. В тайге скрывается амнистированная группа уголовников, совершающих одно за другим тяжкие преступления. В поисках еды и средств передвижения они набредают на деревушку, где в ожидании катера находятся двое амнистированных политзаключённых. Этим двоим и предстоит спасти беспомощных жителей от банды рецидивистов.

Релиз от:



Качество: HDTVRip 720р
Видео: MPEG-4 AVC, 986x720, 25 fps, 4475 Кбит/с
Аудио: AC3, 1 ch, 112 Кбит/с, AC3, 6 ch, 448 Кбит/с
Язык: Русский
Субтитры: Русские, английские

  • x264 [info]: frame I:730 Avg QP:13.80
  • x264 [info]: frame P:36400 Avg QP:16.96
  • x264 [info]: frame B:107331 Avg QP:19.96
  • x264 [info]: consecutive B-frames: 1.6% 2.9% 4.9% 67.7% 10.9% 8.4% 2.2% 1.0% 0.2% 0.0% 0.0% 0.0% 0.0% 0.0% 0.0% 0.0% 0.0%
Общее
Уникальный идентификатор : 216184987471836203947236414990976584265 (0xA2A3B6CE987A15BC9002A38FA0888A49)
Полное имя : D:\Холодное лето пятьдесят третьего_1987 HDTVRip 720p_KORSAR.mkv
Формат : Matroska
Версия формата : Version 2
Размер файла : 3,46 Гбайт
Продолжительность : 1 ч. 36 м.
Общий поток : 5137 Кбит/сек
Название фильма : Холодное лето пятьдесят третьего_1987 HDTVRip 720p_KORSAR
Дата кодирования : UTC 2019-08-01 09:01:30
Программа кодирования : mkvmerge v5.8.0 ('No Sleep / Pillow') built on Sep 2 2012 15:37:04
Библиотека кодирования : libebml v1.2.3 + libmatroska v1.3.0

Видео
Идентификатор : 1
Формат : AVC
Формат/Информация : Advanced Video Codec
Профиль формата : High@L4.1
Настройки формата : CABAC / 11 Ref Frames
Параметр CABAC формата : Да
Параметр RefFrames формата : 11 кадров
Идентификатор кодека : V_MPEG4/ISO/AVC
Продолжительность : 1 ч. 36 м.
Битрейт : 4475 Кбит/сек
Ширина : 986 пикселей
Высота : 720 пикселей
Соотношение сторон : 4:3
Режим частоты кадров : Постоянный
Частота кадров : 25,000 кадров/сек
Цветовое пространство : YUV
Субдискретизация насыщенности : 4:2:0
Битовая глубина : 8 бит
Тип развёртки : Прогрессивная
Бит/(Пиксели*Кадры) : 0.252
Размер потока : 3,01 Гбайт (87%)
Библиотека кодирования : x264 core 152 r2851kMod ba24899
Настройки программы : cabac=1 / ref=11 / deblock=1:2:-2 / analyse=0x3:0x113 / me=umh / subme=10 / psy=1 / fade_compensate=0.00 / psy_rd=1.05:0.10 / mixed_ref=1 / me_range=40 / chroma_me=1 / trellis=2 / 8x8dct=1 / cqm=0 / deadzone=21,11 / fast_pskip=1 / chroma_qp_offset=-3 / threads=18 / lookahead_threads=4 / sliced_threads=0 / nr=0 / decimate=1 / interlaced=0 / bluray_compat=0 / constrained_intra=0 / bframes=16 / b_pyramid=2 / b_adapt=2 / b_bias=0 / direct=1 / weightb=1 / open_gop=0 / weightp=2 / keyint=250 / keyint_min=25 / scenecut=40 / intra_refresh=0 / rc_lookahead=40 / rc=crf / mbtree=1 / crf=16.3000 / qcomp=0.63 / qpmin=0 / qpmax=37 / qpstep=4 / ip_ratio=1.40 / aq=1:0.80
Язык : English
Default : Да
Forced : Нет
Цветовой диапазон : Limited
Основные цвета : BT.709
Характеристики трансфера : BT.709
Коэффициенты матрицы : BT.709

Аудио #1
Идентификатор : 2
Формат : AC-3
Формат/Информация : Audio Coding 3
Коммерческое название : Dolby Digital
Идентификатор кодека : A_AC3
Продолжительность : 1 ч. 36 м.
Вид битрейта : Постоянный
Битрейт : 112 Кбит/сек
Каналы : 1 канал
ChannelLayout : C
Частота : 48,0 КГц
Частота кадров : 31,250 кадров/сек (1536 SPF)
Битовая глубина : 16 бит
Метод сжатия : С потерями
Размер потока : 77,2 Мбайт (2%)
Заголовок : моно 112 Kbps; CBR | DVD5
Язык : Russian
ServiceKind/String : Complete Main
Default : Да
Forced : Нет

Аудио #2
Идентификатор : 3
Формат : AC-3
Формат/Информация : Audio Coding 3
Коммерческое название : Dolby Digital
Идентификатор кодека : A_AC3
Продолжительность : 1 ч. 36 м.
Вид битрейта : Постоянный
Битрейт : 448 Кбит/сек
Каналы : 6 каналов
ChannelLayout : L R C LFE Ls Rs
Частота : 48,0 КГц
Частота кадров : 31,250 кадров/сек (1536 SPF)
Битовая глубина : 16 бит
Метод сжатия : С потерями
Размер потока : 309 Мбайт (9%)
Заголовок : AC-3; 5.1ch 448 Kbps; CBR | DVD5
Язык : Russian
ServiceKind/String : Complete Main
Default : Нет
Forced : Нет

Текст #1
Идентификатор : 4
Формат : UTF-8
Идентификатор кодека : S_TEXT/UTF8
Идентификатор кодека/Информация : UTF-8 Plain Text
Заголовок : Субтитры русские
Язык : Russian
Default : Нет
Forced : Нет

Текст #2
Идентификатор : 5
Формат : UTF-8
Идентификатор кодека : S_TEXT/UTF8
Идентификатор кодека/Информация : UTF-8 Plain Text
Заголовок : Субтитры английские
Язык : English
Default : Нет
Forced : Нет

Меню
00:00:00.000 : ru:Поселенцы
00:08:29.840 : ru:Старший лейтенант Манков
00:14:28.000 : ru:Зотов
00:20:55.440 : ru:Банда
00:25:55.400 : ru:Предатель
00:34:03.840 : ru:Первая кровь
00:42:39.480 : ru:Захват поселка
00:47:21.840 : ru:На пристани
00:52:35.640 : ru:Корабль
00:58:47.920 : ru:Побег
01:03:05.600 : ru:Охота
01:11:35.640 : ru:В засаде
01:15:59.400 : ru:Конец банды
01:18:50.440 : ru:После боя
01:23:16.120 : ru:Последняя жертва
01:29:19.760 : ru:Возвращение
piratbit.pw



Скачать Холодное лето пятьдесят третьего... через торрент http://img16.lostpic.net/2019/05/31/b71fc65d188249278b686edbcf8bec5d.png Скачать фильм Холодное лето пятьдесят третьего... через торрент бесплантно в хорошем качестве Описание: 1953 год. В тайге скрывается амнистированная группа уголовников, совершающих одно за другим тяжкие преступления. В поисках еды и ... 9.8 10 13
Info! Золотая раздача, скачанное не засчитывается.
Торрент: Зарегистрирован [2019-08-06 16:14] · скачан: 28 раз
Статус: √ проверено
Размер: 3.46 GB
Как cкачать? Как скачать Холодное лето пятьдесят третьего... через торрент | qTorrent

% Раздел Тема Автор DL S | L
Кино СССР [ 1.48 GB ] Холодное лето пятьдесят третьего [1987 WEBRip-AVC] aleksan55 Скачать
1 | 0
Кино СССР [ 1.47 GB ] Холодное лето пятьдесят третьего [1987 DVDRip-AVC] Azazel Скачать
1 | 0
Кино СССР [ 1.46 GB ] Холодное лето пятьдесят третьего [1987 DVDRip] Anonymous Скачать
1 | 0

28-11-2019 20:33  

Отключить всю рекламу на сайте

07-08-2019 06:18 Холодное лето пятьдесят третьего... Скачать торрент  

Смотреть нужно! Сейчас уже не снимают такой годняк.piratbit.pw



    Дорогой пользователь! Огромная просьба, поблагодарите релизера, оцените раздачу и оставьте свои комментарий, если Вы скачали Холодное лето пятьдесят третьего... через торрент бесплатно! Внесите свою лепту в развитие PiratBit!
    Комментировать посты могут только пользователи прошедшие не сложную регистрацию
    Показать сообщения:    

    Холодное лето пятьдесят третьего... через торрент
    Скачать бесплатно Холодное лето пятьдесят третьего...
    Холодное лето пятьдесят третьего... скачать торрент
    Холодное лето пятьдесят третьего... смотреть онлайн
    Cкачать фильм Холодное лето пятьдесят третьего... бесплатно
    Холодное лето пятьдесят третьего... скачать торрент в хорошем качестве
    Холодное лето пятьдесят третьего... смотреть онлайн бесплатно в хорошем качестве


    Вы не можете начинать темы
    Вы не можете отвечать на сообщения
    Вы не можете редактировать свои сообщения
    Вы не можете удалять свои сообщения
    Вы не можете голосовать в опросах
    Вы не можете прикреплять файлы к сообщениям
    Вы можете скачивать файлы