Ссылка на приватное зеркало нашего сайта всего за 1$. Внимание количество ограничено!!!

2 сезон

iTunes

iTunes

1

iTunes

iTunes

iTunes

WEBRip

iTunes

30
pack

Вам бонус

ВАЖНО

!!Акция!!

Alien_RageХит недели

RePack

Horizon Zero Dawn

ИГРА 18+

pack

RePack

jed

!!Акция!!

Alien_Rage

RePack

fifa19

RePack

Assassins Creed: Odyssey

RePack

NEED FOR SPEED™ PAYBACK

4 сезон

9 сезон

Бесстыжие 9 сезон

Все сериалы

все сериалы на PB.wtf

RePack

FAR CRY 5
  

Миньоны / Minions (Кайл Балда, Пьер Коффан) [2015, мультфильм, комедия, семейный, UHD BDRip 2160p] Дубляж [iTunes] piratbit.pw

Миньоны через торрент piratbit.pw

Размер: 12.4 GB | Добавлен: 1 год 1 мес. назад | Торрент скачан:33 раза
Скачать  

01-08-2019 16:12 Миньоны Скачать торрент  

Миньоны / Minions««Ой, всё»»

Год выпуска: 2015
Страна: США
Жанр: мультфильм, комедия, семейный
Продолжительность: 01:30:58
Перевод: Дублированный [iTunes]
Субтитры: русские, английские (полные, для слабослышащих)
Режиссер: Кайл Балда, Пьер Коффан
В ролях:

Сандра Буллок (Scarlet Overkill, озвучка,), Джон Хэмм (Herb Overkill, озвучка), Майкл Китон (Walter Nelson, озвучка), Эллисон Дженни (Madge Nelson, озвучка), Стив Куган (Professor Flux, озвучка), Дженнифер Сондерс (The Queen, озвучка), Джеффри Раш (рассказчик, озвучка), Стив Карелл (Young Gru, озвучка), Пьер Коффан (The Minions, озвучка), Кэти Миксон (Tina, озвучка), Майкл Битти (VNC Announcer, озвучка), Хироюки Санада (Sumo Villain, озвучка)
Описание:
Миньоны живут на планете гораздо дольше нас. У них одна навязчивая идея - служить самой Гадкой личности из имеющихся в наличии. Динозавры, фараоны, Дракула, Наполеон - все они оказались недолговечны. И тогда миньоны рванули в Нью-Йорк. Их ждут деньги, Влacть, роковая суперзлодейка Скарлет Оверкилл и, конечно же, вкуснейшая «банана»! Во всяком случае, так им кажется.
Рейтинг:

MPAA: PG - Рекомендуется присутствие родителей
Качество: UHD BDRip 2160p
Формат: MKV
Видео: HEVC/H.265, 3840x2076, ~18,4 Мбит/сек, 23,976 кадра/сек, 10 бит
Аудио 1: AC3, 6 ch, 640 Kbps (английский)
Аудио 2: AC3, 6 ch, 448 Kbps (русский)
Навигация по главам: есть

Общее
Уникальный идентификатор : 51837998673204200669044301766696449583 (0x26FFA2A8EE58162A8A6DDEDCEC31362F)
Полное имя : M:\Мультфильмы\Иностранные\Миньоны (Minions).mkv
Формат : Matroska
Версия формата : Version 4 / Version 2
Размер файла : 12,4 Гбайт
Продолжительность : 1 ч. 30 м.
Общий поток : 19,5 Мбит/сек
Название фильма : Миньоны / Minions
Кодирование произвёл : DEPTH
Дата выпуска : 2015
Дата кодирования : UTC 2019-06-12 02:12:50
Программа кодирования : mkvmerge v34.0.0 ('Sight and Seen') 64-bit
Библиотека кодирования : libebml v1.3.7 + libmatroska v1.5.0
Attachments : f5dcdf8d3da0557582e2e420a4a3e46f.png
Released by : Buba5473 for NNM-Club

Видео
Идентификатор : 1
Формат : HEVC
Формат/Информация : High Efficiency Video Coding
Профиль формата : Main 10@L5.1@High
Идентификатор кодека : V_MPEGH/ISO/HEVC
Продолжительность : 1 ч. 30 м.
Битрейт : 18,4 Мбит/сек
Ширина : 3840 пикселей
Высота : 2076 пикселей
Соотношение сторон : 1,85:1
Режим частоты кадров : Постоянный
Частота кадров : 23,976 (24000/1001) кадра/сек
Цветовое пространство : YUV
Субдискретизация насыщенности : 4:2:0 (Type 2)
Битовая глубина : 10 бит
Бит/(Пиксели*Кадры) : 0.096
Размер потока : 11,7 Гбайт (94%)
Библиотека кодирования : x265 2.6+22-ff02513b92c0:[Windows][GCC 6.3.0][64 bit] 10bit
Настройки программы : cpuid=1050111 / frame-threads=4 / numa-pools=15,15 / wpp / no-pmode / no-pme / no-psnr / no-ssim / log-level=2 / input-csp=1 / input-res=3840x2076 / interlace=0 / total-frames=130817 / level-idc=51 / high-tier=1 / uhd-bd=0 / ref=4 / no-allow-non-conformance / repeat-headers / annexb / aud / hrd / info / hash=0 / no-temporal-layers / no-open-gop / min-keyint=1 / keyint=24 / gop-lookahead=0 / bframes=4 / b-adapt=2 / b-pyramid / bframe-bias=0 / rc-lookahead=25 / lookahead-slices=4 / scenecut=40 / radl=0 / no-intra-refresh / ctu=64 / min-cu-size=8 / rect / no-amp / max-tu-size=32 / tu-inter-depth=1 / tu-intra-depth=1 / limit-tu=0 / rdoq-level=2 / dynamic-rd=0.00 / no-ssim-rd / signhide / no-tskip / nr-intra=0 / nr-inter=0 / no-constrained-intra / no-strong-intra-smoothing / max-merge=3 / limit-refs=3 / limit-modes / me=3 / subme=3 / merange=57 / temporal-mvp / weightp / no-weightb / no-analyze-src-pics / deblock=-3:-3 / no-sao / no-sao-non-deblock / rd=4 / no-early-skip / rskip / no-fast-intra / no-tskip-fast / no-cu-lossless / no-b-intra / no-splitrd-skip / rdpenalty=0 / psy-rd=2.00 / psy-rdoq=1.00 / no-rd-refine / no-lossless / cbqpoffs=0 / crqpoffs=0 / rc=crf / crf=17.0 / qcomp=0.60 / qpstep=4 / stats-write=0 / stats-read=0 / vbv-maxrate=160000 / vbv-bufsize=160000 / vbv-init=0.9 / crf-max=0.0 / crf-min=0.0 / ipratio=1.40 / pbratio=1.30 / aq-mode=1 / aq-strength=1.00 / cutree / zone-count=0 / no-strict-cbr / qg-size=32 / no-rc-grain / qpmax=69 / qpmin=0 / no-const-vbv / sar=1 / overscan=0 / videoformat=5 / range=0 / colorprim=9 / transfer=16 / colormatrix=9 / chromaloc=1 / chromaloc-top=2 / chromaloc-bottom=2 / display-window=0 / master-display=G(13250,34500)B(7500,3000)R(34000,16000)WP(15635,16450)L(10000000,50) / max-cll=739,331 / min-luma=0 / max-luma=1023 / log2-max-poc-lsb=8 / vui-timing-info / vui-hrd-info / slices=1 / no-opt-qp-pps / no-opt-ref-list-length-pps / no-multi-pass-opt-rps / scenecut-bias=0.05 / no-opt-cu-delta-qp / no-aq-motion / hdr / hdr-opt / no-dhdr10-opt / analysis-save=(null) / analysis-load=(null) / analysis-reuse-level=5 / scale-factor=0 / refine-intra=0 / refine-inter=0 / refine-mv=0 / no-limit-sao / ctu-info=0 / no-lowpass-dct / refine-mv-type=0 / copy-pic=1
Default : Да
Forced : Нет
Color range : Limited
Основные цвета : BT.2020
Характеристики трансфера : SMPTE ST 2084
Коэффициенты матрицы : BT.2020 non-constant
Mastering display color primaries : R: x=0.680000 y=0.320000, G: x=0.265000 y=0.690000, B: x=0.150000 y=0.060000, White point: x=0.312700 y=0.329000
Mastering display luminance : min: 0.0050 cd/m2, max: 1000.0000 cd/m2
Maximum Content Light Level : 739 cd/m2
Maximum Frame-Average Light Level : 331 cd/m2

Аудио #1
Идентификатор : 2
Формат : AC-3
Формат/Информация : Audio Coding 3
Параметр Endianness формата : Big
Идентификатор кодека : A_AC3
Продолжительность : 1 ч. 30 м.
Вид битрейта : Постоянный
Битрейт : 640 Кбит/сек
Каналы : 6 каналов
Расположение каналов : Front: L C R, Side: L R, LFE
Частота : 48,0 КГц
Частота кадров : 31,250 кадров/сек (1536 SPF)
Битовая глубина : 16 бит
Метод сжатия : С потерями
Размер потока : 416 Мбайт (3%)
Язык : English
Service kind : Complete Main
Default : Нет
Forced : Нет

Аудио #2
Идентификатор : 5
Формат : AC-3
Формат/Информация : Audio Coding 3
Параметр Endianness формата : Big
Идентификатор кодека : A_AC3
Продолжительность : 1 ч. 30 м.
Вид битрейта : Постоянный
Битрейт : 448 Кбит/сек
Каналы : 6 каналов
Расположение каналов : Front: L C R, Side: L R, LFE
Частота : 48,0 КГц
Частота кадров : 31,250 кадров/сек (1536 SPF)
Битовая глубина : 16 бит
Метод сжатия : С потерями
Задержка видео : 9 мс.
Размер потока : 291 Мбайт (2%)
Заголовок : Перевод: Дубляж, iTunes
Язык : Russian
Service kind : Complete Main
Default : Да
Forced : Нет

Текст #1
Идентификатор : 3
Формат : PGS
Режим смешивания : zlib
Идентификатор кодека : S_HDMV/PGS
Идентификатор кодека/Информация : Picture based subtitle format used on BDs/HD-DVDs
Продолжительность : 1 ч. 30 м.
Битрейт : 45,3 Кбит/сек
Count of elements : 3372
Размер потока : 29,4 Мбайт (0%)
Заголовок : SDH
Язык : English
Default : Нет
Forced : Нет

Текст #2
Идентификатор : 4
Формат : UTF-8
Идентификатор кодека : S_TEXT/UTF8
Идентификатор кодека/Информация : UTF-8 Plain Text
Продолжительность : 1 ч. 30 м.
Битрейт : 38 бит/сек
Count of elements : 1078
Размер потока : 25,3 Кбайт (0%)
Язык : English
Default : Нет
Forced : Нет

Текст #3
Идентификатор : 6
Формат : UTF-8
Идентификатор кодека : S_TEXT/UTF8
Идентификатор кодека/Информация : UTF-8 Plain Text
Продолжительность : 1 ч. 29 м.
Битрейт : 65 бит/сек
Count of elements : 900
Размер потока : 43,0 Кбайт (0%)
Язык : Russian
Default : Да
Forced : Нет

Меню
00:00:00.000 : en:00:00:00.000
00:05:39.839 : en:00:05:39.839
00:11:28.938 : en:00:11:28.938
00:16:55.139 : en:00:16:55.139
00:22:28.430 : en:00:22:28.430
00:26:59.034 : en:00:26:59.034
00:32:54.639 : en:00:32:54.639
00:37:28.872 : en:00:37:28.872
00:40:58.831 : en:00:40:58.831
00:45:29.310 : en:00:45:29.310
00:49:24.086 : en:00:49:24.086
00:53:43.053 : en:00:53:43.053
00:57:04.921 : en:00:57:04.921
01:01:36.943 : en:01:01:36.943
01:05:54.701 : en:01:05:54.701
01:07:55.238 : en:01:07:55.238
01:11:19.150 : en:01:11:19.150
01:15:32.653 : en:01:15:32.653
01:21:12.826 : en:01:21:12.826
01:28:24.758 : en:01:28:24.758
piratbit.pw



Скачать Миньоны через торрент https://a.radikal.ru/a24/1908/fc/7c50f46994ca.png Скачать фильм Миньоны через торрент бесплантно в хорошем качестве Описание: Миньоны живут на планете гораздо дольше нас. У них одна навязчивая идея - служить самой Гадкой личности из имеющихся в наличии. ... 10 10 3
Info! Золотая раздача, скачанное не засчитывается.
Торрент: Зарегистрирован [2019-08-01 16:12] · скачан: 33 раз
Статус: √ проверено
Размер: 12.4 GB
Как cкачать? Как скачать Миньоны через торрент | qTorrent

% Раздел Тема Автор DL S | L
Ultra HD (UHD: 2K, 4K, 8K) [ 51.69 GB ] Миньоны / Minions [2015 мультфильм UHD BDRemux 2160p] DUB [] sheker187 Скачать
1 | 0
Короткометражные мультфильмы [ 99 MB ] Миньоны против газона / Mower Minions [2016 короткометражный HDRip-AVC Любительский ] oleg8 Скачать
1 | 0
Короткометражные мультфильмы [ 59 MB ] Миньоны против газона / Mower Minions [2016 короткометражный BDRip] SUB koenig Скачать
2 | 0
Зарубежные Мультфильмы (BDRip 1080p, 720p, Blu-ray, BD-Remux) [ 5.37 GB ] Миньоны / Minions [2015 мультфильм BDRip 720p] DUB potroks Скачать
2 | 0
Иностранные мультфильмы [ 2.19 GB ] Миньоны / Minions [2015 мультфильм BDRip-AVC от sokol_ok] DUB sokol_ok Скачать
3 | 0
Иностранные мультфильмы [ 2.18 GB ] Миньоны / Minions [2015 мультфильм BDRip-AVC] DUB potroks Скачать
1 | 0
Иностранные мультфильмы [ 1.46 GB ] Миньоны / Minions [2015 мультфильм BDRip-AVC от sokol_ok] DUB sokol_ok Скачать
3 | 0

28-11-2019 20:33  

Отключить всю рекламу на сайте

    Дорогой пользователь! Огромная просьба, поблагодарите релизера, оцените раздачу и оставьте свои комментарий, если Вы скачали Миньоны через торрент бесплатно! Внесите свою лепту в развитие PiratBit!
    Комментировать посты могут только пользователи прошедшие не сложную регистрацию
    Показать сообщения:    

    Миньоны через торрент
    Скачать бесплатно Миньоны
    Миньоны скачать торрент
    Миньоны смотреть онлайн
    Cкачать фильм Миньоны бесплатно
    Миньоны скачать торрент в хорошем качестве
    Миньоны смотреть онлайн бесплатно в хорошем качестве


    Вы не можете начинать темы
    Вы не можете отвечать на сообщения
    Вы не можете редактировать свои сообщения
    Вы не можете удалять свои сообщения
    Вы не можете голосовать в опросах
    Вы не можете прикреплять файлы к сообщениям
    Вы можете скачивать файлы