Ссылка на приватное зеркало нашего сайта всего за 1$. Внимание количество ограничено!!!

2 сезон

iTunes

1 сезон

1

iTunes

iTunes

iTunes

1 сезон

RePack

30

ИГРА 18+

pack

ВАЖНО

!!Акция!!

Alien_RageХит недели

RePack

MK11
pack

Забери бонус

RePack

jed

!!Акция!!

Alien_Rage

RePack

fifa19

RePack

Assassins Creed: Odyssey

RePack

NEED FOR SPEED™ PAYBACK

4 сезон

9 сезон

Бесстыжие 9 сезон

Все сериалы

все сериалы на PB.wtf

RePack

FAR CRY 5
  

Оружие для найма / This Gun for Hire (Фрэнк Таттл) [1942, фильм-нуар, драма, криминал, триллер, BDRip 1080p by msltel] MVO piratbit.pw

Оружие для найма через торрент piratbit.pw

Размер: 6.88 GB | Добавлен: 1 год 2 мес. назад | Торрент скачан:0 раз
Скачать  

01-08-2019 05:45 Оружие для найма Скачать торрент  

Название: Оружие для найма
Оригинальное название: This Gun for Hire
Год выпуска: 1942
Страна: США
Жанр: фильм-нуар, драма, криминал
Продолжительность: 01:21:00
Перевод: профессиональный многоголосый

Режиссер: Фрэнк Таттл
В ролях: Вероника Лэйк, Роберт Престон, Лэйрд Крегар, Алан Лэдд, Талли Маршалл, Марк Лоуренс (I), Олин Ховлин, Памела Блейк, Фрэнк Фергюсон, Виктор Килиан, Патриция Фарр, Гарри Шэннон, Чарльз С. Уилсон, Михаил Разумный, Мэри Девенпорт, Эрл С. Дьюи, Ивонн Де Карло

О фильме: Действие происходит в США во время Второй мировой войны. Испытав в детстве психологическую травму, Филип Рейвен (Ворон) стал холодным, циничным киллером, однако, любящим детей и животных и не терпящим по отношению к ним насилия... Фильм снят по мотивам романа Грэма Грина «Наёмный убийца».



Качество: BDRip 1080p
Формат: MKV
Видео: MPEG-4 AVC, 11.8 Mбит/с, 1480x1080, 23.976 Кадр/с
Аудио 1: русский, AC3, 192 kbps, 2 ch, 48 kHz [закадровый многоголосый]
Аудио 2: английский, AC3, 192 kbps, 2 ch, 48 kHz [оригинал]
Субтитры: английские
Главы/чаптеры
Общее
Уникальный идентификатор : 192726884258214817609693470896839028885 (0x90FDD9060592997BBDAB7D3F5BAD7095)
Полное имя : D:\Video\Оружие для найма.1942.BDRip 1080p by msltel.mkv
Формат : Matroska
Версия формата : Version 4
Размер файла : 6,88 Гбайт
Продолжительность : 1 ч. 21 м.
Общий поток : 12,2 Мбит/сек
Название фильма : Rip by msltel
Дата кодирования : UTC 2019-08-01 03:23:44
Программа кодирования : mkvmerge v8.2.0 ('World of Adventure') 64bit
Библиотека кодирования : libebml v1.3.1 + libmatroska v1.4.2

Видео
Идентификатор : 1
Формат : AVC
Формат/Информация : Advanced Video Codec
Профиль формата : High@L4.1
Настройки формата : CABAC / 4 Ref Frames
Параметр CABAC формата : Да
Параметр RefFrames формата : 4 кадра
Идентификатор кодека : V_MPEG4/ISO/AVC
Продолжительность : 1 ч. 21 м.
Битрейт : 11,8 Мбит/сек
Ширина : 1480 пикселей
Высота : 1080 пикселей
Соотношение сторон : 1,370
Режим частоты кадров : Постоянный
Частота кадров : 23,976 (24000/1001) кадра/сек
Цветовое пространство : YUV
Субдискретизация насыщенности : 4:2:0
Битовая глубина : 8 бит
Тип развёртки : Прогрессивная
Бит/(Пиксели*Кадры) : 0.307
Размер потока : 6,67 Гбайт (97%)
Библиотека кодирования : x264 core 157 r2935 545de2f
Настройки программы : cabac=1 / ref=4 / deblock=1:-2:-2 / analyse=0x3:0x113 / me=umh / subme=11 / psy=1 / psy_rd=1.00:0.15 / mixed_ref=1 / me_range=32 / chroma_me=1 / trellis=2 / 8x8dct=1 / cqm=0 / deadzone=21,11 / fast_pskip=0 / chroma_qp_offset=-3 / threads=6 / lookahead_threads=1 / sliced_threads=0 / nr=0 / decimate=1 / interlaced=0 / bluray_compat=0 / constrained_intra=0 / bframes=11 / b_pyramid=2 / b_adapt=2 / b_bias=0 / direct=1 / weightb=1 / open_gop=0 / weightp=2 / keyint=230 / keyint_min=23 / scenecut=40 / intra_refresh=0 / rc_lookahead=40 / rc=crf / mbtree=1 / crf=20.0 / qcomp=0.60 / qpmin=0 / qpmax=69 / qpstep=4 / vbv_maxrate=50000 / vbv_bufsize=62500 / crf_max=0.0 / nal_hrd=none / filler=0 / ip_ratio=1.40 / aq=1:1.00
Язык : English
Default : Да
Forced : Нет

Аудио #1
Идентификатор : 2
Формат : AC-3
Формат/Информация : Audio Coding 3
Коммерческое название : Dolby Digital
Идентификатор кодека : A_AC3
Продолжительность : 1 ч. 21 м.
Вид битрейта : Постоянный
Битрейт : 192 Кбит/сек
Каналы : 2 канала
ChannelLayout : L R
Частота : 48,0 КГц
Частота кадров : 31,250 кадров/сек (1536 SPF)
Битовая глубина : 16 бит
Метод сжатия : С потерями
Размер потока : 111 Мбайт (2%)
Заголовок : MVO
Язык : Russian
ServiceKind/String : Complete Main
Default : Да
Forced : Нет

Аудио #2
Идентификатор : 3
Формат : AC-3
Формат/Информация : Audio Coding 3
Коммерческое название : Dolby Digital
Идентификатор кодека : A_AC3
Продолжительность : 1 ч. 21 м.
Вид битрейта : Постоянный
Битрейт : 192 Кбит/сек
Каналы : 2 канала
ChannelLayout : L R
Частота : 48,0 КГц
Частота кадров : 31,250 кадров/сек (1536 SPF)
Битовая глубина : 16 бит
Метод сжатия : С потерями
Размер потока : 111 Мбайт (2%)
Заголовок : original
Язык : English
ServiceKind/String : Complete Main
Default : Нет
Forced : Нет

Текст
Идентификатор : 4
Формат : UTF-8
Идентификатор кодека : S_TEXT/UTF8
Идентификатор кодека/Информация : UTF-8 Plain Text
Продолжительность : 1 ч. 20 м.
Битрейт : 61 бит/сек
ElementCount : 1423
Размер потока : 36,4 Кбайт (0%)
Заголовок : английские
Язык : English
Default : Нет
Forced : Нет

Меню
00:00:00.000 : en:Chapter 1
00:07:16.895 : en:Chapter 2
00:16:08.176 : en:Chapter 3
00:22:20.548 : en:Chapter 4
00:30:34.249 : en:Chapter 5
00:37:45.346 : en:Chapter 6
00:44:17.697 : en:Chapter 7
00:50:54.885 : en:Chapter 8
00:56:41.982 : en:Chapter 9
01:01:20.302 : en:Chapter 10
01:07:03.269 : en:Chapter 11
01:13:18.352 : en:Chapter 12
piratbit.pw



Скачать Оружие для найма через торрент https://d.radikal.ru/d28/1907/a2/2bd4ee9473ab.jpg Скачать фильм Оружие для найма через торрент бесплантно в хорошем качестве О фильме: Действие происходит в США во время Второй мировой войны. Испытав в детстве психологическую травму, Филип Рейвен (Ворон) стал ... 5 10 1
Торрент: Зарегистрирован [2019-08-01 05:45] · скачан: 0 раз
Статус: √ проверено
Размер: 6.88 GB
Как cкачать? Как скачать Оружие для найма через торрент | qTorrent

% Раздел Тема Автор DL S | L
Классика зарубежного кино [ 2.55 GB ] Оружие для найма / This Gun for Hire [1942 фильм-нуар BDRip 720p by msltel] MVO msltel Скачать
1 | 0

28-11-2019 20:33  

Отключить всю рекламу на сайте

    Дорогой пользователь! Огромная просьба, поблагодарите релизера, оцените раздачу и оставьте свои комментарий, если Вы скачали Оружие для найма через торрент бесплатно! Внесите свою лепту в развитие PiratBit!
    Комментировать посты могут только пользователи прошедшие не сложную регистрацию
    Показать сообщения:    

    Оружие для найма через торрент
    Скачать бесплатно Оружие для найма
    Оружие для найма скачать торрент
    Оружие для найма смотреть онлайн
    Cкачать фильм Оружие для найма бесплатно
    Оружие для найма скачать торрент в хорошем качестве
    Оружие для найма смотреть онлайн бесплатно в хорошем качестве


    Вы не можете начинать темы
    Вы не можете отвечать на сообщения
    Вы не можете редактировать свои сообщения
    Вы не можете удалять свои сообщения
    Вы не можете голосовать в опросах
    Вы не можете прикреплять файлы к сообщениям
    Вы можете скачивать файлы