Marvel's Avengers Deluxe Edition (супер цена) 159р. Внимание количество ограничено!!!

2 сезон

iTunes

iTunes

1

iTunes

iTunes

iTunes

WEBRip

iTunes

30
pack

Новость дня

ВАЖНО

!!Акция!!

Alien_RageХит недели

RePack

Horizon Zero Dawn

ИГРА 18+

pack

RePack

jed

!!Акция!!

Alien_Rage

RePack

fifa19

RePack

Assassins Creed: Odyssey

RePack

NEED FOR SPEED™ PAYBACK

4 сезон

9 сезон

Бесстыжие 9 сезон

Все сериалы

все сериалы на PB.wtf

RePack

FAR CRY 5
  

Тайна (Фаик Гасанов) [1963, СССР, детский, приключения, VHSRip-AVC от AVP Studio] piratbit.pw

Тайна через торрент piratbit.pw

Раздают: 3 [ 0 KB/s ]
Размер: 744 MB | Добавлен: 1 год 1 мес. назад | Торрент скачан:18 раз
Скачать  

31-07-2019 08:17 Тайна Скачать торрент  

Тайна
Страна: СССР
Производство: Одесская киностудия

Жанр: детский, приключения
Год выпуска: 1963
Продолжительность: 01:03:23

Перевод: Не требуется
Cубтитры: нет
Оригинальная аудиодорожка: русский

Режиссер: Фаик Гасанов

В ролях:
Володя Дибров, Андрей Кутилин, Валерий Зубарев, С. Власов, Сергей Ермилов, Г. Голубев, Л. Климанова, Вова Фурманкевич, А. Мандрыкин, Вячеслав Подвиг, Л. Боляев, В. Воронецкий, В. Гласов, Е. Грек, А. Калугина, Г. Каркуциев, О. Карпук, А. Козеев, С. Милюков, В. Чистяков...
Об актёрах подробней

Описание:
О приключениях ребят одного пионерского лагеря во время летнего турпохода.
В пионерский отряд пришел новый вожатый Артем - студент-геофизик и турист. Ребята этому очень обрадовались, но их ждало разочарование - новый пионервожатый имел массу личных забот...

Исходник: S-VHS
Качество видео: VHSRip-AVC
Формат видео: MKV

Видео: 712->760x570 (4:3), 25,000 кадров/сек, H264 ~ 1448 kbps avg, 0.143 bit/pixel
Аудио: 48 kHz, Dolby Digital AC3 2.0, 192 kbps

Раздача от:
Общее
Полное имя : Tayna.1963.VHSRip-AVC_[New-team]_by_AVP_Studio.mkv
Формат : Matroska
Версия формата : Version 2
Размер файла : 744 Мбайт
Продолжительность : 1 ч. 3 м.
Общий поток : 1641 Кбит/сек
Дата кодирования : UTC 2019-07-27 14:36:54
Программа кодирования : mkvmerge v6.1.0 ('Old Devil') built on Mar 4 2013 09:10:42
Библиотека кодирования : libebml v1.3.0 + libmatroska v1.4.0

Видео
Идентификатор : 1
Формат : AVC
Формат/Информация : Advanced Video Codec
Профиль формата : High@L4.1
Настройки формата : CABAC / 10 Ref Frames
Параметр CABAC формата : Да
Параметр RefFrames формата : 10 кадров
Идентификатор кодека : V_MPEG4/ISO/AVC
Продолжительность : 1 ч. 3 м.
Битрейт : 1448 Кбит/сек
Ширина : 712 пикселей
Высота : 570 пикселей
Соотношение сторон : 4:3
Режим частоты кадров : Постоянный
Частота кадров : 25,000 кадров/сек
Цветовое пространство : YUV
Субдискретизация насыщенности : 4:2:0
Битовая глубина : 8 бит
Тип развёртки : Прогрессивная
Бит/(Пиксели*Кадры) : 0.143
Размер потока : 642 Мбайт (86%)
Библиотека кодирования : x264 core 157 r2932 303c484
Настройки программы : cabac=1 / ref=10 / deblock=1:-2:-1 / analyse=0x3:0x113 / me=umh / subme=10 / psy=1 / psy_rd=1.00:0.00 / mixed_ref=1 / me_range=32 / chroma_me=1 / trellis=2 / 8x8dct=1 / cqm=0 / deadzone=21,11 / fast_pskip=1 / chroma_qp_offset=-2 / threads=6 / lookahead_threads=1 / sliced_threads=0 / nr=0 / decimate=0 / interlaced=0 / bluray_compat=0 / constrained_intra=0 / bframes=8 / b_pyramid=2 / b_adapt=2 / b_bias=0 / direct=3 / weightb=1 / open_gop=0 / weightp=2 / keyint=250 / keyint_min=25 / scenecut=40 / intra_refresh=0 / rc=2pass / mbtree=0 / bitrate=1448 / ratetol=1.0 / qcomp=0.60 / qpmin=0 / qpmax=69 / qpstep=4 / cplxblur=20.0 / qblur=0.5 / ip_ratio=1.40 / pb_ratio=1.30 / aq=1:1.00
Default : Да
Forced : Нет

Аудио
Идентификатор : 2
Формат : AC-3
Формат/Информация : Audio Coding 3
Коммерческое название : Dolby Digital
Идентификатор кодека : A_AC3
Продолжительность : 1 ч. 3 м.
Вид битрейта : Постоянный
Битрейт : 192 Кбит/сек
Каналы : 2 канала
ChannelLayout : L R
Частота : 48,0 КГц
Частота кадров : 31,250 кадров/сек (1536 SPF)
Битовая глубина : 16 бит
Метод сжатия : С потерями
Размер потока : 87,1 Мбайт (12%)
Default : Да
Forced : Нет
piratbit.pw



Скачать Тайна через торрент http://a.radikal.ru/a18/1912/2d/fd35aa5a7d94.png Скачать фильм Тайна через торрент бесплантно в хорошем качестве Описание:О приключениях ребят одного пионерского лагеря во время летнего турпохода.В пионерский отряд пришел новый вожатый Артем - ... 5 10 1
Торрент: Зарегистрирован [2019-07-31 08:17] · скачан: 18 раз
Статус: √ проверено
Размер: 744 MB
Как cкачать? Как скачать Тайна через торрент | qTorrent

% Раздел Тема Автор DL S | L
S.T.A.L.K.E.R. [ 3.13 GB ] Сталкер: Тень Чернобыля: Тайные Тропы 2 2011 [RePack RU/ RU Shooter Action TPS] от cdman Typucm Скачать
2 | 0
Иностранные мультфильмы [ 1.37 GB ] Тайна красной планеты / Mars Needs Moms [2011 мультфильм HDRip лицензия] Lil Badun Скачать
1 | 0
Наши сериалы [ 5.27 GB ] Тайная стража [2005 . DVDRip] Инсайдер Скачать
1 | 0
Зарубежные сериалы [ 75.5 GB ] Тайны Смолвиля / Smallville 1-10 сезон [2001-2011 DVDRip] piloter Скачать
1 | 0
Научно-популярные фильмы [ 12.83 GB ] Запретные темы истории Загадки Древнего Египта Неизвестная Мексика Перу и Боливия Ковчег завета Восточная коллекция Земля обетованная Тайна Йонагуни Невозможный Нан-Мадол [2003-2011 Документальный DVDRip] Stargate_Universe Скачать
1 | 0
Discovery [ 1.29 GB ] Discovery: Тайна убийства Гитлера / Discovery: Virtual History: Secret plot to kill Hitler [2004 Документальный DVDRip] VintMosina Скачать
1 | 0
Порно фильмы с сюжетом [ 1.37 GB ] Une vieille maitresse / Тайная любовница [2007 эротика DVDRip] [RU перевод] Majestro Скачать
1 | 2


Последний раз редактировалось: AVP Studio (2019-12-22 11:29), всего редактировалось 2 раз(а)

28-11-2019 20:33  

Отключить всю рекламу на сайте

31-07-2019 09:57 Тайна Скачать торрент  

Топик был перенесен из форума Кино СССР в форум Детские отечественные фильмы


bober100piratbit.pw



    Дорогой пользователь! Огромная просьба, поблагодарите релизера, оцените раздачу и оставьте свои комментарий, если Вы скачали Тайна через торрент бесплатно! Внесите свою лепту в развитие PiratBit!
    Комментировать посты могут только пользователи прошедшие не сложную регистрацию
    Показать сообщения:    

    Тайна через торрент
    Скачать бесплатно Тайна
    Тайна скачать торрент
    Тайна смотреть онлайн
    Cкачать фильм Тайна бесплатно
    Тайна скачать торрент в хорошем качестве
    Тайна смотреть онлайн бесплатно в хорошем качестве


    Вы не можете начинать темы
    Вы не можете отвечать на сообщения
    Вы не можете редактировать свои сообщения
    Вы не можете удалять свои сообщения
    Вы не можете голосовать в опросах
    Вы не можете прикреплять файлы к сообщениям
    Вы можете скачивать файлы