1 сезон

1 сезон

iTunes

1

КиноПоиск HD

Кинопоиск HD

iTunes

13

1 сезон

RePack

30

Ultimate

ВАЖНО

ИГРА 18+

pack

RePack

MK11
pack

Легкие деньги

RePack

jed

RePack

fifa19

RePack

RDR2

RePack

NEED FOR SPEED™ PAYBACK

4 сезон

9 сезон

Бесстыжие 9 сезон

Все сериалы

все сериалы на PB.wtf

RePack

FAR CRY 5
  
Magnet ссылка

Ассасинаут: Астронавт-убийца / Assassinaut (Дрю Болдак) [2019, Фантастика, ужасы, WEB-DL 1080p] AVO [А.Важенин [BadBajo] piratbit.pw

Ассасинаут: Астронавт-убийца через торрент piratbit.pw

Размер: 4.73 GB | Добавлен: 1 год 8 мес. назад | Торрент скачан:14 раз
Скачать  

31-07-2019 05:11 Ассасинаут: Астронавт-убийца Скачать торрент  

Ассасинаут: Астронавт-убийца / Assassinaut
Год выпуска: 2019
Страна: США
Жанр: Фантастика, ужасы
Продолжительность: 01:22:42
Перевод: Авторский (одноголосый) |
Субтитры: Английские (отключаемые)

Режиссер: Дрю Болдак

rating


В ролях: Шеннон Хатчинсон, Вито Триго, Жасмина Парент, Джонатан Ньюпорт, Яэл Хаскал, Брайан К. Лэндис, Ирен Сантьяго, Марк Эшворт, Лилли Нельсон, Джеффри Алан Соломон

Описание: После очередного ядерного холокоста Земля уже непригодна для жизни. Президент планеты обнаруживает новое место для поселения и к нему отправляют четверых совсем юных астронавтов. Но чуть позже те самые астронавты являются единственной надеждой президента и всей нации на спасение.

Качество: WEB-DL 1080p
Формат: MKV

Видео: 1920х816, ~6 899, 23.976 (24000/1001) FPS
Аудио#1: Русский: AC3, 6 ch, 640 Kbps (BadBajo)
Аудио#2: Английский: Е-AC3, 6 ch, 640 Kbps
скриншот  скриншот  скриншот  

скриншот  скриншот  скриншот  

Общее
Уникальный идентификатор : 284032384145259942861403240340837442286 (0xD5AEA5BAB3DCFC44F5432E9091CD22EE)
Полное имя : D:\Assassinaut.2019.1080p.AMZN.WEB-DL.DDP5.1.H.264_rus_BadBajo.mkv
Формат : Matroska
Версия формата : Version 4 / Version 2
Размер файла : 4,73 Гбайт
Продолжительность : 1 ч. 22 м.
Общий поток : 8181 Кбит/сек
Название фильма : Assassinaut.2019.1080p.AMZN.WEB-DL.DDP5.1.H.264_rus_BadBajo
Дата кодирования : UTC 2019-07-31 01:25:48
Программа кодирования : mkvmerge v33.1.0 ('Primrose') 64-bit
Библиотека кодирования : libebml v1.3.7 + libmatroska v1.5.0
Обложка : Yes
Attachments : cover.jpg / small_cover.jpg

Видео
Идентификатор : 1
Формат : AVC
Формат/Информация : Advanced Video Codec
Профиль формата : High@L4
Параметр CABAC формата : Да
Параметр RefFrames формата : 4 кадра
Идентификатор кодека : V_MPEG4/ISO/AVC
Продолжительность : 1 ч. 22 м.
Вид битрейта : Постоянный
Битрейт : 6899 Кбит/сек
Номинальный битрейт : 10000 Кбит/сек
Ширина : 1920 пикселей
Высота : 816 пикселей
Соотношение сторон : 2,35:1
Режим частоты кадров : Постоянный
Частота кадров : 23,976 (24000/1001) кадра/сек
Цветовое пространство : YUV
Субдискретизация насыщенности : 4:2:0
Битовая глубина : 8 бит
Тип развёртки : Прогрессивная
Бит/(Пиксели*Кадры) : 0.179
Размер потока : 3,89 Гбайт (82%)
Default : Да
Forced : Нет
Цветовой диапазон : Limited
Основные цвета : BT.709
Характеристики трансфера : BT.709
Коэффициенты матрицы : BT.709

Аудио #1
Идентификатор : 2
Формат : AC-3
Формат/Информация : Audio Coding 3
Расширение режима : CM (complete main)
Параметр Endianness формата : Big
Идентификатор кодека : A_AC3
Продолжительность : 1 ч. 22 м.
Вид битрейта : Постоянный
Битрейт : 640 Кбит/сек
Каналы : 6 каналов
Расположение каналов : Front: L C R, Side: L R, LFE
Частота : 48,0 КГц
Частота кадров : 31,250 кадров/сек (1536 spf)
Метод сжатия : С потерями
Размер потока : 379 Мбайт (8%)
Заголовок : Assassinaut.2019.AC3_rus_BadBajo
Язык : Russian
Default : Да
Forced : Да

Аудио #2
Идентификатор : 3
Формат : E-AC-3
Формат/Информация : Audio Coding 3
Параметр Endianness формата : Big
Идентификатор кодека : A_EAC3
Продолжительность : 1 ч. 22 м.
Вид битрейта : Постоянный
Битрейт : 640 Кбит/сек
Каналы : 6 каналов
Расположение каналов : Front: L C R, Side: L R, LFE
Частота : 48,0 КГц
Частота кадров : 187,500 кадров/сек (256 spf)
Метод сжатия : С потерями
Размер потока : 379 Мбайт (8%)
Заголовок : Assassinaut.2019.EAC-3_eng
Язык : English
Default : Нет
Forced : Нет

Текст #1
Идентификатор : 4
Формат : UTF-8
Идентификатор кодека : S_TEXT/UTF8
Идентификатор кодека/Информация : UTF-8 Plain Text
Язык : English
Default : Нет
Forced : Нет

Текст #2
Идентификатор : 5
Формат : UTF-8
Идентификатор кодека : S_TEXT/UTF8
Идентификатор кодека/Информация : UTF-8 Plain Text
Заголовок : SDH
Язык : English
Default : Нет
Forced : Нет

piratbit.pw



Скачать Ассасинаут: Астронавт-убийца через торрент https://c.radikal.ru/c25/1907/50/217a387f4757.jpg Скачать фильм Ассасинаут: Астронавт-убийца через торрент бесплантно в хорошем качестве Описание: После очередного ядерного холокоста Земля уже непригодна для жизни. Президент планеты обнаруживает новое место для поселения и к ... 7.3 10 3
Торрент: Зарегистрирован [2019-07-31 05:11] · скачан: 14 раз
Статус: √ проверено
Размер: 4.73 GB
Как cкачать? Как скачать Ассасинаут: Астронавт-убийца через торрент | UTorrent

% Раздел Тема Автор DL S | L
Фильмы с авторской озвучкой [ 744 MB ] Ассасинаут: Астронавт-убийца / Assassinaut [2019 WEB-DLRip-AVC] [AVO] [А.Важенин [BadBajo]] от wolf1245 & MediaBit Lithuania Скачать
1 | 0
Фильмы с авторской озвучкой [ 1.39 GB ] Ассасинаут: Астронавт-убийца / Assassinaut [2019 WEB-DLRip] AVO [А.Важенин [BadBajo] - ExKinoRay Enigma2010 Скачать
7 | 2

28-11-2019 20:33  

Отключить всю рекламу на сайте

    Дорогой пользователь! Огромная просьба, поблагодарите релизера, оцените раздачу и оставьте свои комментарий, если Вы скачали Ассасинаут: Астронавт-убийца через торрент бесплатно! Внесите свою лепту в развитие PiratBit!
    Комментировать посты могут только пользователи прошедшие не сложную регистрацию
    Показать сообщения:    

    Ассасинаут: Астронавт-убийца через торрент
    Скачать бесплатно Ассасинаут: Астронавт-убийца
    Ассасинаут: Астронавт-убийца скачать торрент
    Ассасинаут: Астронавт-убийца смотреть онлайн
    Cкачать фильм Ассасинаут: Астронавт-убийца бесплатно
    Ассасинаут: Астронавт-убийца скачать торрент в хорошем качестве
    Ассасинаут: Астронавт-убийца смотреть онлайн бесплатно в хорошем качестве


    Вы не можете начинать темы
    Вы не можете отвечать на сообщения
    Вы не можете редактировать свои сообщения
    Вы не можете удалять свои сообщения
    Вы не можете голосовать в опросах
    Вы не можете прикреплять файлы к сообщениям
    Вы можете скачивать файлы