Ссылка на приватное зеркало нашего сайта всего за 1$. Внимание количество ограничено!!!

2 сезон

iTunes

iTunes

1

iTunes

iTunes

iTunes

WEBRip

iTunes

30
pack

Вам бонус

ВАЖНО

!!Акция!!

Alien_RageХит недели

RePack

Horizon Zero Dawn

ИГРА 18+

pack

RePack

jed

!!Акция!!

Alien_Rage

RePack

fifa19

RePack

Assassins Creed: Odyssey

RePack

NEED FOR SPEED™ PAYBACK

4 сезон

9 сезон

Бесстыжие 9 сезон

Все сериалы

все сериалы на PB.wtf

RePack

FAR CRY 5
  

Команда с нашей улицы (Алексей Маслюков) [1953, СССР, детский, VHSRip-AVC от AVP Studio] piratbit.pw

Команда с нашей улицы через торрент piratbit.pw

Раздают: 1 [ 0 KB/s ]
Размер: 1.09 GB | Добавлен: 1 год 1 мес. назад | Торрент скачан:17 раз
Скачать  

28-07-2019 08:02 Команда с нашей улицы Скачать торрент  

Команда с нашей улицы
Страна: СССР
Производство: Киевская киностудия

Жанр: детский
Год выпуска: 1963
Продолжительность: 01:22:09

Перевод: Не требуется
Cубтитры: нет
Оригинальная аудиодорожка: русский

Режиссер: Алексей Маслюков

В ролях:
Костя Евгеньев, Галина Кавура, Саша Симонов, Алик Лабутин, Лариса Борисенко, Эдик Хандрос, Сергей Петров, Дина Андреева, Алла Ларионова, Надир Малишевский, Николай Рыбников, Степан Каюков...
Об актёрах подробней

Описание:
Забросив все намеченные на лето дела, пионерское звено целые дни напролет гоняет мяч во дворе и на улице. Больше всего это возмущает жильцов дома. Назревает скандал. Выход находит младшая сестра лидера команды. Таня предлагает построить детский стадион. Ее предложение поддерживают шефы и подхватывают пионеры лагеря…

Исходник: VHS
Качество видео: VHSRip-AVC
Формат видео: MKV

Видео: 712->752x564 (4:3), 25,000 кадров/сек, H264 ~ 1704 kbps avg, 0.170 bit/pixel
Аудио: 48 kHz, Dolby Digital AC3 2.0, 192 kbps

Раздача от:
Общее
Полное имя : Komanda.s.nashey.ulicy.1953.VHSRip-AVC_[New-team]_by_AVP_Studio.mkv
Формат : Matroska
Версия формата : Version 2
Размер файла : 1,09 Гбайт
Продолжительность : 1 ч. 22 м.
Общий поток : 1898 Кбит/сек
Дата кодирования : UTC 2019-07-27 11:23:53
Программа кодирования : mkvmerge v6.1.0 ('Old Devil') built on Mar 4 2013 09:10:42
Библиотека кодирования : libebml v1.3.0 + libmatroska v1.4.0

Видео
Идентификатор : 1
Формат : AVC
Формат/Информация : Advanced Video Codec
Профиль формата : High@L4.1
Настройки формата : CABAC / 10 Ref Frames
Параметр CABAC формата : Да
Параметр RefFrames формата : 10 кадров
Идентификатор кодека : V_MPEG4/ISO/AVC
Продолжительность : 1 ч. 22 м.
Битрейт : 1704 Кбит/сек
Ширина : 712 пикселей
Высота : 564 пикселя
Соотношение сторон : 4:3
Режим частоты кадров : Постоянный
Частота кадров : 25,000 кадров/сек
Цветовое пространство : YUV
Субдискретизация насыщенности : 4:2:0
Битовая глубина : 8 бит
Тип развёртки : Прогрессивная
Бит/(Пиксели*Кадры) : 0.170
Размер потока : 980 Мбайт (88%)
Библиотека кодирования : x264 core 157 r2932 303c484
Настройки программы : cabac=1 / ref=10 / deblock=1:-2:-1 / analyse=0x3:0x113 / me=umh / subme=10 / psy=1 / psy_rd=1.00:0.00 / mixed_ref=1 / me_range=32 / chroma_me=1 / trellis=2 / 8x8dct=1 / cqm=0 / deadzone=21,11 / fast_pskip=1 / chroma_qp_offset=-2 / threads=6 / lookahead_threads=1 / sliced_threads=0 / nr=0 / decimate=0 / interlaced=0 / bluray_compat=0 / constrained_intra=0 / bframes=8 / b_pyramid=2 / b_adapt=2 / b_bias=0 / direct=3 / weightb=1 / open_gop=0 / weightp=2 / keyint=250 / keyint_min=25 / scenecut=40 / intra_refresh=0 / rc=2pass / mbtree=0 / bitrate=1704 / ratetol=1.0 / qcomp=0.60 / qpmin=0 / qpmax=69 / qpstep=4 / cplxblur=20.0 / qblur=0.5 / ip_ratio=1.40 / pb_ratio=1.30 / aq=1:1.00
Default : Да
Forced : Нет

Аудио
Идентификатор : 2
Формат : AC-3
Формат/Информация : Audio Coding 3
Коммерческое название : Dolby Digital
Идентификатор кодека : A_AC3
Продолжительность : 1 ч. 22 м.
Вид битрейта : Постоянный
Битрейт : 192 Кбит/сек
Каналы : 2 канала
ChannelLayout : L R
Частота : 48,0 КГц
Частота кадров : 31,250 кадров/сек (1536 SPF)
Битовая глубина : 16 бит
Метод сжатия : С потерями
Размер потока : 113 Мбайт (10%)
Default : Да
Forced : Нет
piratbit.pw



Скачать Команда с нашей улицы через торрент http://d.radikal.ru/d43/1912/c0/2cd2239ae936.png Скачать фильм Команда с нашей улицы через торрент бесплантно в хорошем качестве Описание:Забросив все намеченные на лето дела, пионерское звено целые дни напролет гоняет мяч во дворе и на улице. Больше всего это ... 5 10 1
Торрент: Зарегистрирован [2019-07-28 08:02] · скачан: 17 раз
Статус: √ проверено
Размер: 1.09 GB
Как cкачать? Как скачать Команда с нашей улицы через торрент | qTorrent

% Раздел Тема Автор DL S | L
Детские отечественные фильмы [ 1.09 GB ] Команда с нашей улицы [1953 СССР детский VHSRip от AVP Studio] AVP Studio Скачать
1 | 1

28-11-2019 20:33  

Отключить всю рекламу на сайте

    Дорогой пользователь! Огромная просьба, поблагодарите релизера, оцените раздачу и оставьте свои комментарий, если Вы скачали Команда с нашей улицы через торрент бесплатно! Внесите свою лепту в развитие PiratBit!
    Комментировать посты могут только пользователи прошедшие не сложную регистрацию
    Показать сообщения:    

    Команда с нашей улицы через торрент
    Скачать бесплатно Команда с нашей улицы
    Команда с нашей улицы скачать торрент
    Команда с нашей улицы смотреть онлайн
    Cкачать фильм Команда с нашей улицы бесплатно
    Команда с нашей улицы скачать торрент в хорошем качестве
    Команда с нашей улицы смотреть онлайн бесплатно в хорошем качестве


    Вы не можете начинать темы
    Вы не можете отвечать на сообщения
    Вы не можете редактировать свои сообщения
    Вы не можете удалять свои сообщения
    Вы не можете голосовать в опросах
    Вы не можете прикреплять файлы к сообщениям
    Вы можете скачивать файлы