Ссылка на приватное зеркало нашего сайта всего за 1$. Внимание количество ограничено!!!

2 сезон

iTunes

iTunes

1

iTunes

iTunes

iTunes

WEBRip

iTunes

30
pack

Вам бонус

ВАЖНО

!!Акция!!

Alien_RageХит недели

RePack

Horizon Zero Dawn

ИГРА 18+

pack

RePack

jed

!!Акция!!

Alien_Rage

RePack

fifa19

RePack

Assassins Creed: Odyssey

RePack

NEED FOR SPEED™ PAYBACK

4 сезон

9 сезон

Бесстыжие 9 сезон

Все сериалы

все сериалы на PB.wtf

RePack

FAR CRY 5
  

Юнга со шхуны «Колумб» (Евгений Шерстобитов) [1963, СССР, детский, приключения, DVDRip от AVP Studio] piratbit.pw

Юнга со шхуны «Колумб» через торрент piratbit.pw

Раздают: 1 [ 0 KB/s ] Качают: 1 [ 0 KB/s ]
Размер: 744 MB | Добавлен: 1 год 1 мес. назад | Торрент скачан:14 раз
Скачать  

27-07-2019 12:47 Юнга со шхуны «Колумб» Скачать торрент  

Юнга со шхуны «Колумб»
Страна: СССР
Производство: Киностудия им. А. Довженко

Жанр: детский, приключения
Год выпуска: 1963
Продолжительность: 01:11:58

Перевод: Не требуется
Cубтитры: нет
Оригинальная аудиодорожка: русский

Режиссер: Евгений Шерстобитов

В ролях:
Ирина Мицик, Владимир Кисленко, Виктор Мирошниченко, Иван Рыжов, Сережа Кривошлыков, Татьяна Фатеева, Дмитрий Франько, Витольд Янпавлис...
Об актёрах подробней

Описание:
Подростки Марко и Лида, напав на след диверсанта, вовлекаются в гущу событий, связанных с поимкой шпиона. Благодаря ребятам, диверсанты, пытающиеся на захваченной шхуне «Колумб» уйти в открытое море, задерживаются пограничниками.

Источник: DVD5 R5
Качество видео: DVDRip
Формат видео: AVI

Видео: 688х352 (1,955:1), 25,000 fps, XviD ~ 1244 kbps avg, 0.205 bit/pixel
Аудио: 48 kHz, Dolby Digital AC3 2.0, 192 kbps

Раздача от:
Общее
Полное имя : YUnga.so.shkhuny.Kolumb.1963.DVDRip_[New-team]_by_AVP_Studio.avi
Формат : AVI
Формат/Информация : Audio Video Interleave
Размер файла : 744 Мбайт
Продолжительность : 1 ч. 11 м.
Общий поток : 1445 Кбит/сек
Программа кодирования : VirtualDubMod 1.5.10.3 | www.virtualdub-fr.org || (build 2550/release)
Библиотека кодирования : VirtualDubMod build 2550/release

Видео
Идентификатор : 0
Формат : MPEG-4 Visual
Профиль формата : Advanced Simple@L5
Настройки формата : BVOP1 / Custom Matrix
Параметр BVOP формата : 1
Параметр QPel формата : Нет
Параметр GMC формата : Без точки перехода
Параметр матрицы формата : Выборочная
Идентификатор кодека : XVID
Идентификатор кодека/Подсказка : XviD
Продолжительность : 1 ч. 11 м.
Битрейт : 1244 Кбит/сек
Ширина : 688 пикселей
Высота : 352 пикселя
Соотношение сторон : 1,955
Частота кадров : 25,000 кадров/сек
Цветовое пространство : YUV
Субдискретизация насыщенности : 4:2:0
Битовая глубина : 8 бит
Тип развёртки : Прогрессивная
Метод сжатия : С потерями
Бит/(Пиксели*Кадры) : 0.205
Размер потока : 640 Мбайт (86%)
Библиотека кодирования : XviD 73

Аудио
Идентификатор : 1
Формат : AC-3
Формат/Информация : Audio Coding 3
Коммерческое название : Dolby Digital
Идентификатор кодека : 2000
Продолжительность : 1 ч. 11 м.
Вид битрейта : Постоянный
Битрейт : 192 Кбит/сек
Каналы : 2 канала
ChannelLayout : L R
Частота : 48,0 КГц
Частота кадров : 31,250 кадров/сек (1536 SPF)
Битовая глубина : 16 бит
Метод сжатия : С потерями
Размер потока : 98,8 Мбайт (13%)
Выравнивание : Разделение по промежуткам
Продолжительность промежутка : 40 мс. (1,00 видеокадр)
Время предзагрузки промежутка : 500 мс.
piratbit.pw



Скачать Юнга со шхуны «Колумб» через торрент http://d.radikal.ru/d21/1912/51/f10c17f0b4e4.png Скачать фильм Юнга со шхуны «Колумб» через торрент бесплантно в хорошем качестве Описание:Подростки Марко и Лида, напав на след диверсанта, вовлекаются в гущу событий, связанных с поимкой шпиона. Благодаря ребятам, ... 5 10 1
Info! Золотая раздача, скачанное не засчитывается.
Торрент: Зарегистрирован [2019-07-27 12:47] · скачан: 14 раз
Статус: √ проверено
Размер: 744 MB
Как cкачать? Как скачать Юнга со шхуны «Колумб» через торрент | qTorrent

% Раздел Тема Автор DL S | L
Детские отечественные фильмы [ 744 MB ] Юнга со шхуны «Колумб» [1963 СССР детский DVDRip-AVC от AVP Studio] AVP Studio Скачать
1 | 0
Детские отечественные фильмы [ 1.45 GB ] Юнга со шхуны «Колумб» [1963 детский DVDRip-AVC] smaster Скачать
1 | 0


Последний раз редактировалось: AVP Studio (2019-12-25 10:46), всего редактировалось 1 раз

28-11-2019 20:33  

Отключить всю рекламу на сайте

27-07-2019 13:17 Юнга со шхуны «Колумб» Скачать торрент  

Топик был перенесен из форума Кино СССР в форум Детские отечественные фильмы


bober100piratbit.pw



    Дорогой пользователь! Огромная просьба, поблагодарите релизера, оцените раздачу и оставьте свои комментарий, если Вы скачали Юнга со шхуны «Колумб» через торрент бесплатно! Внесите свою лепту в развитие PiratBit!
    Комментировать посты могут только пользователи прошедшие не сложную регистрацию
    Показать сообщения:    

    Юнга со шхуны «Колумб» через торрент
    Скачать бесплатно Юнга со шхуны «Колумб»
    Юнга со шхуны «Колумб» скачать торрент
    Юнга со шхуны «Колумб» смотреть онлайн
    Cкачать фильм Юнга со шхуны «Колумб» бесплатно
    Юнга со шхуны «Колумб» скачать торрент в хорошем качестве
    Юнга со шхуны «Колумб» смотреть онлайн бесплатно в хорошем качестве


    Вы не можете начинать темы
    Вы не можете отвечать на сообщения
    Вы не можете редактировать свои сообщения
    Вы не можете удалять свои сообщения
    Вы не можете голосовать в опросах
    Вы не можете прикреплять файлы к сообщениям
    Вы можете скачивать файлы