Ссылка на приватное зеркало нашего сайта всего за 1$. Внимание количество ограничено!!!

2 сезон

iTunes

iTunes

1

iTunes

iTunes

iTunes

WEBRip

iTunes

30
pack

Новость дня

ВАЖНО

!!Акция!!

Alien_RageХит недели

RePack

Horizon Zero Dawn

ИГРА 18+

pack

RePack

jed

!!Акция!!

Alien_Rage

RePack

fifa19

RePack

Assassins Creed: Odyssey

RePack

NEED FOR SPEED™ PAYBACK

4 сезон

9 сезон

Бесстыжие 9 сезон

Все сериалы

все сериалы на PB.wtf

RePack

FAR CRY 5
  

Затмение (Артем Аксененко) [2016, Фэнтези, приключения, BDRip 1080p] [Лицензия] piratbit.pw

Затмение через торрент piratbit.pw

Раздают: 1 [ 0 KB/s ]
Размер: 7.53 GB | Добавлен: 1 год 1 мес. назад | Торрент скачан:70 раз
Скачать  

26-07-2019 07:09 Затмение Скачать торрент  

Затмение
Год выпуска: 2016
Страна: Россия
Жанр: Фэнтези, приключения
Продолжительность: 01:20:00
Перевод: Не требуется | Лицензия
Субтитры: отсутствуют

Режиссер: Артем Аксененко

rating

В ролях:

Александр Петров (Алекс), Диана Пожарская (Таня), Катя Кабак (Кристина), Сергей Бурунов (ведущий шоу Дмитрий Григорьев), Семен Лопатин (магистр Рустам), Кирилл Козаков (шаман), Денис Ясик (мастер Кан), Юлия Сулес (хозяйка рынка), Алексей Воронин (Семен Семенович Бударагин), Светлана Головина (знахарка Аглая), Вероника Вернадская (Инга), Андрей Перунов (декан)
Описание: Обаятельный авантюрист Алекс в силу стечения обстоятельств заменяет на съемках популярного телешоу про экстрасенсов выбывшего участника — Шамана. И повторяет в прямом эфире предсказание, которое подслушал за кулисами, — что одна из зрительниц обречена на вечное одиночество, и от нее отвернутся близкие и родственники. Алекс не подозревает, что происходящее с ним — не случайно: он оказался замешан в давнее противостояние двух могущественных магов. Экстрасенсы втянули парня в опасную мистическую игру без правил. В жизни Тани — девушки, которую Алекс «проклял» на шоу — начинают происходить мистические события. Алекс пытается переубедить её, что никакого «проклятья» нет, и по ходу дела влюбляется в неё. Но предсказание получает все больше подтверждений и начинает угрожать жизни девушки. Чтобы сохранить себя и свою любовь, герой должен найти способ выбраться из мистического переплёта…

Качество: BDRip 1080p
Формат: MKV

Видео: MPEG-4 AVC, 12000 Кбит/с, 1920x1080
Аудио: Русский. DTS, 6 каналов, 1509 Кбит/сек, 48,0 КГц
скриншот  скриншот  скриншот  

Общее
Уникальный идентификатор : 203147802117043945092083359053919393111 (0x98D4D7F125B9A9ACBFBB0EA3B53D9557)
Полное имя : C:\Затмение.2016.O.BDRiр.1080p.mkv
Формат : Matroska
Версия формата : Version 4 / Version 2
Размер файла : 7,53 Гбайт
Продолжительность : 1 ч. 20 м.
Общий поток : 13,5 Мбит/сек
Дата кодирования : UTC 2016-12-16 06:28:39
Программа кодирования : mkvmerge v8.3.0 ('Over the Horizon') 64bit
Библиотека кодирования : libebml v1.3.1 + libmatroska v1.4.2

Видео
Идентификатор : 1
Формат : AVC
Формат/Информация : Advanced Video Codec
Профиль формата : High@L4.1
Параметр CABAC формата : Да
Параметр RefFrames формата : 4 кадра
Идентификатор кодека : V_MPEG4/ISO/AVC
Продолжительность : 1 ч. 20 м.
Битрейт : 12,0 Мбит/сек
Ширина : 1920 пикселей
Высота : 1080 пикселей
Соотношение сторон : 16:9
Режим частоты кадров : Постоянный
Частота кадров : 25,000 кадров/сек
Цветовое пространство : YUV
Субдискретизация насыщенности : 4:2:0
Битовая глубина : 8 бит
Тип развёртки : Прогрессивная
Бит/(Пиксели*Кадры) : 0.231
Размер потока : 6,54 Гбайт (87%)
Библиотека кодирования : x264 core 148 r2705+54 9f484c1 t_mod_Custom [8-bit@all X86_64]
Настройки программы : cabac=1 / ref=4 / deblock=1:-2:-2 / analyse=0x3:0x113 / me=hex / subme=7 / psy=1 / fade_compensate=0.00 / psy_rd=1.00:0.15 / mixed_ref=1 / me_range=16 / chroma_me=1 / trellis=2 / 8x8dct=1 / cqm=0 / deadzone=21,11 / fast_pskip=0 / chroma_qp_offset=-3 / threads=18 / lookahead_threads=3 / sliced_threads=0 / nr=0 / decimate=1 / interlaced=0 / bluray_compat=0 / constrained_intra=0 / fgo=0 / bframes=3 / b_pyramid=2 / b_adapt=2 / b_bias=0 / direct=3 / weightb=1 / open_gop=0 / weightp=2 / keyint=250 / keyint_min=25 / scenecut=40 / intra_refresh=0 / rc_lookahead=40 / rc=2pass / mbtree=0 / bitrate=11971 / ratetol=1.0 / qcomp=0.60 / qpmin=0:0:0 / qpmax=69:69:69 / qpstep=4 / cplxblur=20.0 / qblur=0.5 / vbv_maxrate=50000 / vbv_bufsize=50000 / nal_hrd=none / filler=0 / ip_ratio=1.40 / pb_ratio=1.30 / aq=1:1.00 / aq-sensitivity=10.00 / aq-factor=1.00:1.00:1.00 / aq2=0 / aq3=0
Язык : English
Default : Да
Forced : Нет

Аудио
Идентификатор : 2
Формат : DTS
Формат/Информация : Digital Theater Systems
Режим : 16
Параметр Endianness формата : Big
Идентификатор кодека : A_DTS
Продолжительность : 1 ч. 20 м.
Вид битрейта : Постоянный
Битрейт : 1509 Кбит/сек
Каналы : 6 каналов
Расположение каналов : Front: L C R, Side: L R, LFE
Частота : 48,0 КГц
Частота кадров : 93,750 кадра/сек (512 spf)
Битовая глубина : 24 бит
Метод сжатия : С потерями
Размер потока : 863 Мбайт (11%)
Заголовок : DTS RUSS
Язык : Russian
Default : Да
Forced : Нет

Меню
00:00:00.000 : en:00:00:00.000
00:06:49.720 : en:00:06:49.720
00:13:57.600 : en:00:13:57.600
00:20:40.840 : en:00:20:40.840
00:28:13.520 : en:00:28:13.520
00:35:37.880 : en:00:35:37.880
00:42:11.680 : en:00:42:11.680
00:48:49.560 : en:00:48:49.560
00:55:03.640 : en:00:55:03.640
01:01:43.160 : en:01:01:43.160
01:10:00.560 : en:01:10:00.560
01:16:18.080 : en:01:16:18.080

piratbit.pw



Скачать Затмение через торрент http://s020.radikal.ru/i722/1612/ff/402ef85a9440.jpg Скачать фильм Затмение через торрент бесплантно в хорошем качестве Описание: Обаятельный авантюрист Алекс в силу стечения обстоятельств заменяет на съемках популярного телешоу про экстрасенсов выбывшего ... 10 10 3
Торрент: Зарегистрирован [2019-07-26 07:09] · скачан: 70 раз
Статус: T временная
Размер: 7.53 GB
Как cкачать? Как скачать Затмение через торрент | qTorrent

% Раздел Тема Автор DL S | L
Наши фильмы (HD, WEB-DL 720p, 1080p) [ 7.08 GB ] Затмение [2016 BDRip 1080p] [GER Transfer] [] - KORSAR kisa1980 Скачать
1 | 0
Наши сериалы [ 7.8 GB ] Затмение / Серии: 1-8 из 8 [2018 WEBRip 720p] bober100 Скачать
2 | 0
Фильмы [HD 720p, 1080p] (Хороший звук DUB, MVO) [ 5.4 GB ] Сумерки. Сага. Затмение / The Twilight Saga: Eclipse [2010 BDRip 1080p HEVC ()] Мичман37 Скачать
2 | 0
Наши сериалы [ 4.17 GB ] Затмение / Серии: 1-8 из 8 [2018 WEB-DLRip] bober100 Скачать
1 | 0
Информационно-аналитические и общественно-политические передачи [ 2.64 GB ] Россия. Полное затмение [2012 Документальный SATRip] emelchev Скачать
1 | 0
Фильмы [HD 720p, 1080p] (Хороший звук DUB, MVO) [ 12.95 GB ] Затмение / Regression [2015 BDRip 1080p] - sheker187 Скачать
1 | 0

28-11-2019 20:33  

Отключить всю рекламу на сайте

    Дорогой пользователь! Огромная просьба, поблагодарите релизера, оцените раздачу и оставьте свои комментарий, если Вы скачали Затмение через торрент бесплатно! Внесите свою лепту в развитие PiratBit!
    Комментировать посты могут только пользователи прошедшие не сложную регистрацию
    Показать сообщения:    

    Затмение через торрент
    Скачать бесплатно Затмение
    Затмение скачать торрент
    Затмение смотреть онлайн
    Cкачать фильм Затмение бесплатно
    Затмение скачать торрент в хорошем качестве
    Затмение смотреть онлайн бесплатно в хорошем качестве


    Вы не можете начинать темы
    Вы не можете отвечать на сообщения
    Вы не можете редактировать свои сообщения
    Вы не можете удалять свои сообщения
    Вы не можете голосовать в опросах
    Вы не можете прикреплять файлы к сообщениям
    Вы можете скачивать файлы