1 сезон

1 сезон

iTunes

1

КиноПоиск HD

Кинопоиск HD

iTunes

13

1 сезон

RePack

30

Ultimate

ВАЖНО

ИГРА 18+

pack

RePack

MK11
pack

Легкие деньги

RePack

jed

RePack

fifa19

RePack

RDR2

RePack

NEED FOR SPEED™ PAYBACK

4 сезон

9 сезон

Бесстыжие 9 сезон

Все сериалы

все сериалы на PB.wtf

RePack

FAR CRY 5
  
Magnet ссылка

Зубастики атакуют! / Critters Attack! (Бобби Миллер) [2019, Ужасы, фантастика, комедия, BDRip 720p] AVO [А.Важенин [BadBajo] piratbit.pw

Зубастики атакуют! через торрент piratbit.pw

Размер: 4.3 GB | Добавлен: 1 год 8 мес. назад | Торрент скачан:21 раз
Скачать  

24-07-2019 18:43 Зубастики атакуют! Скачать торрент  

Зубастики атакуют! / Critters Attack!
Год выпуска: 2019
Страна: США
Жанр: Ужасы, фантастика, комедия
Продолжительность: 01:29:18
Перевод: Авторский (одноголосый) |
Субтитры: Английские (полные)

Режиссер: Бобби Миллер

rating


В ролях: Ташиана Р. Вашингтон, Ди Уоллес-Стоун, Джайден Ноэль, Джек Фултон, Ава Престон, Леон Клайнгман, Авашан Сингх, Кит Арбетнот, Стивен Блум, Хо Чоу

Описание: Зубастики снова посетили нашу планету! Дрея, двадцатилетняя девушка, мечтающая поступить в колледж, находит подработку сиделкой. Чтобы занять детишек, она предлагает прогуляться по лесу. Во время прогулки они находят таинственного раненого зверька и решают помочь ему.

Качество: BDRip 720p
Формат: MKV

Видео: 1280x720 (16:9), 23,976 fps, x264 ~5 861 kbps avg, 0.265 bit/pixel
Аудио#1: 48 kHz, AC3 Dolby Digital, 3/2 (L,C,R,l,r) + LFE ch, ~384.00 kbps avg | RUS (BadBajo)
Аудио#2: 48 kHz, AC3 Dolby Digital, 3/2 (L,C,R,l,r) + LFE ch, ~640.00 kbps avg | ENG
скриншот  скриншот  скриншот  скриншот  скриншот  

Общее
Уникальный идентификатор: 172238417005489597068122146226925703091 (0x8193E998D834B41B5CD5B938953F8FB3)
Полное имя: F:\OlLanDGroup\Critters.Attack!.2019.BDRip(720p).OlLanDGroup.mkv
Формат: Matroska
Версия формата: Version 4 / Version 2
Размер файла: 4,30 Гбайт
Продолжительность: 1 ч. 29 м.
Общий поток: 6887 Кбит/сек
Название фильма: Critters.Attack.2019 #TorpedoUK#
Дата кодирования: UTC 2019-07-24 07:11:19
Программа кодирования: mkvmerge v29.0.0 ('Like It Or Not') 64-bit
Библиотека кодирования: libebml v1.3.6 + libmatroska v1.4.9

Видео
Идентификатор: 1
Формат: AVC
Формат/Информация: Advanced Video Codec
Профиль формата: High@L4.1
Параметр CABAC формата: Да
Параметр ReFrames формата: 9 кадров
Идентификатор кодека: V_MPEG4/ISO/AVC
Продолжительность: 1 ч. 29 м.
Битрейт: 5861 Кбит/сек
Ширина: 1280 пикселей
Высота: 720 пикселей
Соотношение сторон: 16:9
Режим частоты кадров: Постоянный
Частота кадров: 23,976 (24000/1001) кадра/сек
Цветовое пространство: YUV
Субдискретизация насыщенности: 4:2:0
Битовая глубина: 8 бит
Тип развёртки: Прогрессивная
Бит/(Пиксели*Кадры): 0.265
Размер потока: 3,66 Гбайт (85%)
Библиотека кодирования: x264 core 157 r2938 2b00a84 TnP@MTeam Mod
Настройки программы: cabac=1 / ref=9 / deblock=1:-3:-3 / analyse=0x3:0x133 / me=umh / subme=10 / psy=1 / psy_rd=1.05:0.00 / mixed_ref=1 / me_range=24 / chroma_me=1 / trellis=2 / 8x8dct=1 / cqm=0 / deadzone=21,11 / fast_pskip=0 / chroma_qp_offset=-2 / threads=12 / lookahead_threads=2 / sliced_threads=0 / nr=0 / decimate=0 / interlaced=0 / bluray_compat=0 / constrained_intra=0 / bframes=8 / b_pyramid=2 / b_adapt=2 / b_bias=0 / direct=3 / weightb=1 / open_gop=0 / weightp=2 / keyint=250 / keyint_min=24 / scenecut=40 / intra_refresh=0 / rc_lookahead=250 / rc=crf / mbtree=0 / crf=16.2 / qcomp=0.60 / qpmin=0 / qpmax=69 / qpstep=4 / vbv_maxrate=62500 / vbv_bufsize=78125 / crf_max=0.0 / nal_hrd=none / filler=0 / ip_ratio=1.30 / pb_ratio=1.20 / aq=3:0.80
Язык: English
Default: Да
Forced: Нет
Цветовой диапазон: Limited
Основные цвета: BT.709
Коэффициенты матрицы: BT.709

Аудио #1
Идентификатор: 2
Формат: AC-3
Формат/Информация: Audio Coding 3
Расширение режима: CM (complete main)
Параметр Endianness формата: Big
Идентификатор кодека: A_AC3
Продолжительность: 1 ч. 29 м.
Вид битрейта: Постоянный
Битрейт: 384 Кбит/сек
Каналы: 6 каналов
Расположение каналов: Front: L C R, Side: L R, LFE
Частота: 48,0 КГц
Частота кадров: 31,250 кадров/сек (1536 spf)
Битовая глубина: 16 бит
Метод сжатия: С потерями
Размер потока: 245 Мбайт (6%)
Заголовок: AVO [BadBajo]
Язык: Russian
Default: Да
Forced: Нет

Аудио #2
Идентификатор: 3
Формат: AC-3
Формат/Информация: Audio Coding 3
Расширение режима: CM (complete main)
Параметр Endianness формата: Big
Идентификатор кодека: A_AC3
Продолжительность: 1 ч. 29 м.
Вид битрейта: Постоянный
Битрейт: 640 Кбит/сек
Каналы: 6 каналов
Расположение каналов: Front: L C R, Side: L R, LFE
Частота: 48,0 КГц
Частота кадров: 31,250 кадров/сек (1536 spf)
Битовая глубина: 16 бит
Метод сжатия: С потерями
Размер потока: 409 Мбайт (9%)
Заголовок: [Original]
Язык: English
Default: Нет
Forced: Нет

Текст
Идентификатор: 4
Формат: UTF-8
Идентификатор кодека: S_TEXT/UTF8
Идентификатор кодека/Информация: UTF-8 Plain Text
Продолжительность: 1 ч. 24 м.
Битрейт: 45 бит/сек
Count of elements: 999
Размер потока: 28,4 Кбайт (0%)
Default: Нет
Forced: Нет

Меню
00:00:00.000: :Chapter 1
00:08:57.203: :Chapter 2
00:17:30.174: :Chapter 3
00:26:09.192: :Chapter 4
00:36:23.347: :Chapter 5
00:44:00.429: :Chapter 6
00:51:18.283: :Chapter 7
00:57:40.915: :Chapter 8
01:06:16.097: :Chapter 9
01:15:12.800: :Chapter 10
01:25:29.082: :Chapter 11

piratbit.pw



Скачать Зубастики атакуют! через торрент https://i90.fastpic.ru/big/2019/0724/56/adce4e3f17efe6608454ea9a6d2d6056.jpg Скачать фильм Зубастики атакуют! через торрент бесплантно в хорошем качестве Описание: Зубастики снова посетили нашу планету! Дрея, двадцатилетняя девушка, мечтающая поступить в колледж, находит подработку сиделкой. ... 10 10 4
Торрент: Зарегистрирован [2019-07-24 18:43] · скачан: 21 раз
Статус: √ проверено
Размер: 4.3 GB
Как cкачать? Как скачать Зубастики атакуют! через торрент | UTorrent

% Раздел Тема Автор DL S | L
Фильмы с авторской озвучкой [ 8.33 GB ] Зубастики атакуют! / Critters Attack! [2019 BDRip 1080p] AVO [А.Важенин [BadBajo] bober100 Скачать
1 | 0
T Фильмы (мультфильмы) cо спонсором показа (Новинки AVI/MKV) [ 1.37 GB ] Зубастики атакуют! / Critters Attack! [2019 DVDRip] MVO ["Синема УС"] bober100 Скачать
1 | 0
Фильмы с авторской озвучкой [ 1.54 GB ] Зубастики атакуют! / Critters Attack! [2019 DVDRip-AVC] AVO [А.Важенин [BadBajo] bober100 Скачать
4 | 0

28-11-2019 20:33  

Отключить всю рекламу на сайте

    Дорогой пользователь! Огромная просьба, поблагодарите релизера, оцените раздачу и оставьте свои комментарий, если Вы скачали Зубастики атакуют! через торрент бесплатно! Внесите свою лепту в развитие PiratBit!
    Комментировать посты могут только пользователи прошедшие не сложную регистрацию
    Показать сообщения:    

    Зубастики атакуют! через торрент
    Скачать бесплатно Зубастики атакуют!
    Зубастики атакуют! скачать торрент
    Зубастики атакуют! смотреть онлайн
    Cкачать фильм Зубастики атакуют! бесплатно
    Зубастики атакуют! скачать торрент в хорошем качестве
    Зубастики атакуют! смотреть онлайн бесплатно в хорошем качестве


    Вы не можете начинать темы
    Вы не можете отвечать на сообщения
    Вы не можете редактировать свои сообщения
    Вы не можете удалять свои сообщения
    Вы не можете голосовать в опросах
    Вы не можете прикреплять файлы к сообщениям
    Вы можете скачивать файлы