1 сезон

1 сезон

iTunes

1

КиноПоиск HD

Кинопоиск HD

iTunes

13

1 сезон

RePack

30

Новинка

ВАЖНО

ИГРА 18+

pack

RePack

MK11
pack

Легкие деньги

RePack

jed

RePack

fifa19

RePack

RDR2

RePack

NEED FOR SPEED™ PAYBACK

4 сезон

9 сезон

Бесстыжие 9 сезон

Все сериалы

все сериалы на PB.wtf

RePack

FAR CRY 5
  
Magnet ссылка

Зубастики атакуют! / Critters Attack! (Бобби Миллер) [2019, Ужасы, фантастика, комедия, BDRip 1080p] AVO [А.Важенин [BadBajo] piratbit.pw

Зубастики атакуют! через торрент piratbit.pw

Размер: 8.33 GB | Добавлен: 1 год 8 мес. назад | Торрент скачан:46 раз
Скачать  

23-07-2019 23:38 Зубастики атакуют! Скачать торрент  

Зубастики атакуют! / Critters Attack!
Год выпуска: 2019
Страна: США
Жанр: Ужасы, фантастика, комедия
Продолжительность: 01:29:18
Перевод: Авторский (одноголосый) |
Субтитры: Английские

Режиссер: Бобби Миллер

rating


В ролях: Ташиана Р. Вашингтон, Ди Уоллес-Стоун, Джайден Ноэль, Джек Фултон, Ава Престон, Леон Клайнгман, Авашан Сингх, Кит Арбетнот, Стивен Блум, Хо Чоу

Описание: Зубастики снова посетили нашу планету! Дрея, двадцатилетняя девушка, мечтающая поступить в колледж, находит подработку сиделкой. Чтобы занять детишек, она предлагает прогуляться по лесу. Во время прогулки они находят таинственного раненого зверька и решают помочь ему.

Качество: BDRip 1080p
Формат: MKV

Видео: MPEG-4 AVC, 11.5 Mбит/с, 1920x1080, 23.976 кадр/с
Аудио#1: Русский (АС3, 6ch, 384 Кбит/с, 48.0 KHz) Авторский (одноголосый, закадровый) Важенин (BadBajo)
Аудио#2: Английский (DTS, 6ch, 1509 Кбит/с, 48.0 KHz)
скриншот  скриншот  скриншот  скриншот  скриншот  

скриншот  скриншот  скриншот  скриншот  скриншот  

Источник: Critters.Attack.2019.1080p.BluRay.x264.DTS-FGT
General
Unique ID : 195760700335362551547531795238984567560 (0x934623B45F3EE2B4A03D4AD4DFF74B08)
Complete name : Critters.Attack.2019.BDRip.1080p.mkv
Format : Matroska
Format version : Version 4
File size : 8.33 GiB
Duration : 1 h 29 min
Overall bit rate : 13.4 Mb/s
Encoded date : UTC 2019-07-23 19:36:53
Writing application : mkvmerge v7.1.0 ('Good Love') 64bit built on Jul 27 2014 13:06:55
Writing library : libebml v1.3.0 + libmatroska v1.4.1

Video
ID : 1
Format : AVC
Format/Info : Advanced Video Codec
Format profile : High@L4.1
Format settings : CABAC / 4 Ref Frames
Format settings, CABAC : Yes
Format settings, Reference fra : 4 frames
Codec ID : V_MPEG4/ISO/AVC
Duration : 1 h 29 min
Bit rate : 11.5 Mb/s
Width : 1 920 pixels
Height : 1 080 pixels
Display aspect ratio : 16:9
Frame rate mode : Constant
Frame rate : 23.976 (24000/1001) FPS
Color space : YUV
Chroma subsampling : 4:2:0
Bit depth : 8 bits
Scan type : Progressive
Bits/(Pixel*Frame) : 0.231
Stream size : 7.15 GiB (86%)
Writing library : x264 core 148 r2795M aaa9aa8
Encoding settings : cabac=1 / ref=4 / deblock=1:-2:-2 / analyse=0x3:0x113 / me=umh / subme=9 / psy=1 / psy_rd=1.00:0.15 / mixed_ref=1 / me_range=16 / chroma_me=1 / trellis=2 / 8x8dct=1 / cqm=0 / deadzone=21,11 / fast_pskip=1 / chroma_qp_offset=-3 / threads=24 / lookahead_threads=3 / sliced_threads=0 / nr=0 / decimate=1 / interlaced=0 / bluray_compat=0 / constrained_intra=0 / bframes=3 / b_pyramid=2 / b_adapt=1 / b_bias=0 / direct=3 / weightb=1 / open_gop=0 / weightp=2 / keyint=250 / keyint_min=25 / scenecut=40 / intra_refresh=0 / rc_lookahead=50 / rc=2pass / mbtree=1 / bitrate=11500 / ratetol=1.0 / qcomp=0.60 / qpmin=0 / qpmax=69 / qpstep=4 / cplxblur=20.0 / qblur=0.5 / vbv_maxrate=31250 / vbv_bufsize=31250 / nal_hrd=none / filler=0 / ip_ratio=1.40 / aq=1:1.00
Language : English
Default : Yes
Forced : No

Audio #1
ID : 2
Format : AC-3
Format/Info : Audio Coding 3
Commercial name : Dolby Digital
Codec ID : A_AC3
Duration : 1 h 29 min
Bit rate mode : Constant
Bit rate : 384 kb/s
Channel(s) : 6 channels
Channel layout : L R C LFE Ls Rs
Sampling rate : 48.0 kHz
Frame rate : 31.250 FPS (1536 SPF)
Bit depth : 16 bits
Compression mode : Lossy
Stream size : 245 MiB (3%)
Title : AVO | BadBajo
Language : Russian
Service kind : Complete Main
Default : Yes
Forced : No

Audio #2
ID : 3
Format : DTS
Format/Info : Digital Theater Systems
Codec ID : A_DTS
Duration : 1 h 29 min
Bit rate mode : Constant
Bit rate : 1 509 kb/s
Channel(s) : 6 channels
Channel layout : C L R Ls Rs LFE
Sampling rate : 48.0 kHz
Frame rate : 93.750 FPS (512 SPF)
Bit depth : 24 bits
Compression mode : Lossy
Stream size : 964 MiB (11%)
Language : English
Default : No
Forced : No

Text
ID : 4
Format : UTF-8
Codec ID : S_TEXT/UTF8
Codec ID/Info : UTF-8 Plain Text
Duration : 1 h 24 min
Bit rate : 43 b/s
Count of elements : 942
Stream size : 26.9 KiB (0%)
Language : English
Default : No
Forced : No

Menu
00:00:00.000 : en:Chapter 1
00:08:59.080 : en:Chapter 2
00:17:31.967 : en:Chapter 3
00:26:11.027 : en:Chapter 4
00:36:25.224 : en:Chapter 5
00:44:02.222 : en:Chapter 6
00:51:20.243 : en:Chapter 7
00:57:42.709 : en:Chapter 8
01:06:17.932 : en:Chapter 9
01:15:14.593 : en:Chapter 10
01:25:30.875 : en:Chapter 11

piratbit.pw



Скачать Зубастики атакуют! через торрент https://i90.fastpic.ru/big/2019/0724/56/adce4e3f17efe6608454ea9a6d2d6056.jpg Скачать фильм Зубастики атакуют! через торрент бесплантно в хорошем качестве Описание: Зубастики снова посетили нашу планету! Дрея, двадцатилетняя девушка, мечтающая поступить в колледж, находит подработку сиделкой. ... 10 10 6
Торрент: Зарегистрирован [2019-07-23 23:38] · скачан: 46 раз
Статус: √ проверено
Размер: 8.33 GB
Как cкачать? Как скачать Зубастики атакуют! через торрент | UTorrent

% Раздел Тема Автор DL S | L
Фильмы с авторской озвучкой [ 4.3 GB ] Зубастики атакуют! / Critters Attack! [2019 BDRip 720p] AVO [А.Важенин [BadBajo] bober100 Скачать
1 | 0
T Фильмы (мультфильмы) cо спонсором показа (Новинки AVI/MKV) [ 1.37 GB ] Зубастики атакуют! / Critters Attack! [2019 DVDRip] MVO ["Синема УС"] bober100 Скачать
1 | 0
Фильмы с авторской озвучкой [ 1.54 GB ] Зубастики атакуют! / Critters Attack! [2019 DVDRip-AVC] AVO [А.Важенин [BadBajo] bober100 Скачать
2 | 0

28-11-2019 20:33  

Отключить всю рекламу на сайте

    Дорогой пользователь! Огромная просьба, поблагодарите релизера, оцените раздачу и оставьте свои комментарий, если Вы скачали Зубастики атакуют! через торрент бесплатно! Внесите свою лепту в развитие PiratBit!
    Комментировать посты могут только пользователи прошедшие не сложную регистрацию
    Показать сообщения:    

    Зубастики атакуют! через торрент
    Скачать бесплатно Зубастики атакуют!
    Зубастики атакуют! скачать торрент
    Зубастики атакуют! смотреть онлайн
    Cкачать фильм Зубастики атакуют! бесплатно
    Зубастики атакуют! скачать торрент в хорошем качестве
    Зубастики атакуют! смотреть онлайн бесплатно в хорошем качестве


    Вы не можете начинать темы
    Вы не можете отвечать на сообщения
    Вы не можете редактировать свои сообщения
    Вы не можете удалять свои сообщения
    Вы не можете голосовать в опросах
    Вы не можете прикреплять файлы к сообщениям
    Вы можете скачивать файлы