Ссылка на приватное зеркало нашего сайта всего за 1$. Внимание количество ограничено!!!

2 сезон

iTunes

iTunes

1

iTunes

iTunes

iTunes

WEBRip

iTunes

30
pack

Вам бонус

ВАЖНО

!!Акция!!

Alien_RageХит недели

RePack

Horizon Zero Dawn

ИГРА 18+

pack

RePack

jed

!!Акция!!

Alien_Rage

RePack

fifa19

RePack

Assassins Creed: Odyssey

RePack

NEED FOR SPEED™ PAYBACK

4 сезон

9 сезон

Бесстыжие 9 сезон

Все сериалы

все сериалы на PB.wtf

RePack

FAR CRY 5
  

Гости (Евгений Абызов) [2019, триллер, ужасы, мелодрама, BDRip 1080p] [Лицензия] piratbit.pw

Гости через торрент piratbit.pw

Размер: 6.56 GB | Добавлен: 1 год 2 мес. назад | Торрент скачан:91 раз
Скачать  

22-07-2019 09:07 Гости Скачать торрент  

Гости
Год выпуска: 2019
Страна: Россия
Жанр: триллер, ужасы, мелодрама
Продолжительность: 01:27:37
Перевод: Не требуется | Лицензия
Субтитры: отсутствуют

Режиссер: Евгений Абызов

rating

В ролях: Юрий Чурсин, Ангелина Стречина, Михаил Мещеряков, Анастасия Уколова, Анар Халилов, Евгений Егоров, Марина Панферова, Иван Верховых, Мария Лисовая

Описание: Юная Катя знакомится с веселой компанией приезжих ребят, у которых есть специфическое развлечение - устраивать вечеринки в чужих пустующих домах. И Катя знает подходящее место: старинная дача на побережье, хозяин которой давно уехал. Уединенно расположенный дом, в котором в начале прошлого века был спиритический салон, кажется всем отличным вариантом. Тревожная, даже жуткая заброшенность этого места никого не отпугивает... В разгар вечеринки появляется тот, кого Катя никак не ожидала увидеть: таинственный хозяин дома... Человек, которого она любила. Человек, находящийся во власти потусторонних сил.

Качество: BDRip 1080p
Формат: MKV

Видео: MPEG-4 AVC, 1920x804, 10.1 Mbit/s, 23.976 fps
Аудио: AC3 Dolby Digital, 3/2 (L,C,R,l,r) + LFE ch, ~640 kbps
скриншот  скриншот  скриншот  скриншот  

x264 [info]: frame I:734 Avg QP:15.14 size:228297
x264 [info]: frame P:26341 Avg QP:17.90 size: 96572
x264 [info]: frame B:98969 Avg QP:20.19 size: 39499

Гость.2109_1080p.mkv
Формат : Matroska
Версия формата : Version 4
Размер файла : 6,56 Гбайт
Продолжительность : 1 ч. 27 м.
Общий поток : 10,7 Мбит/сек
Дата кодирования : UTC 2019-07-21 19:33:35
Программа кодирования : mkvmerge v35.0.0 ('All The Love In The World') 64-bit
Библиотека кодирования : libebml v1.3.9 + libmatroska v1.5.2

Видео
Идентификатор : 1
Формат : AVC
Формат/Информация : Advanced Video Codec
Профиль формата : High@L4.1
Настройки формата : CABAC / 5 Ref Frames
Параметр CABAC формата : Да
Параметр RefFrames формата : 5 кадров
Идентификатор кодека : V_MPEG4/ISO/AVC
Продолжительность : 1 ч. 27 м.
Битрейт : 10,1 Мбит/сек
Ширина : 1920 пикселей
Высота : 804 пикселя
Соотношение сторон : 2,40:1
Режим частоты кадров : Постоянный
Частота кадров : 23,976 (24000/1001) кадра/сек
Цветовое пространство : YUV
Субдискретизация насыщенности : 4:2:0
Битовая глубина : 8 бит
Тип развёртки : Прогрессивная
Бит/(Пиксели*Кадры) : 0.273
Размер потока : 6,17 Гбайт (94%)
Библиотека кодирования : x264 core 157 r2935 545de2f
Настройки программы : cabac=1 / ref=5 / deblock=1:-3:-3 / analyse=0x3:0x133 / me=umh / subme=11 / psy=1 / psy_rd=1.00:0.00 / mixed_ref=1 / me_range=32 / chroma_me=1 / trellis=2 / 8x8dct=1 / cqm=0 / deadzone=21,11 / fast_pskip=0 / chroma_qp_offset=-2 / threads=24 / lookahead_threads=6 / sliced_threads=0 / nr=0 / decimate=0 / interlaced=0 / bluray_compat=0 / constrained_intra=0 / bframes=10 / b_pyramid=2 / b_adapt=2 / b_bias=0 / direct=3 / weightb=1 / open_gop=0 / weightp=2 / keyint=240 / keyint_min=23 / scenecut=40 / intra_refresh=0 / rc_lookahead=60 / rc=2pass / mbtree=0 / bitrate=10105 / ratetol=1.0 / qcomp=0.60 / qpmin=0 / qpmax=51 / qpstep=4 / cplxblur=20.0 / qblur=0.5 / vbv_maxrate=50000 / vbv_bufsize=62500 / nal_hrd=none / filler=0 / ip_ratio=1.40 / pb_ratio=1.30 / aq=3:0.80
Язык : English
Default : Да
Forced : Нет

Аудио
Идентификатор : 2
Формат : AC-3
Формат/Информация : Audio Coding 3
Коммерческое название : Dolby Digital
Идентификатор кодека : A_AC3
Продолжительность : 1 ч. 27 м.
Вид битрейта : Постоянный
Битрейт : 640 Кбит/сек
Каналы : 6 каналов
ChannelLayout : L R C LFE Ls Rs
Частота : 48,0 КГц
Частота кадров : 31,250 кадров/сек (1536 SPF)
Битовая глубина : 16 бит
Метод сжатия : С потерями
Размер потока : 401 Мбайт (6%)
Язык : Russian
ServiceKind/String : Complete Main
Default : Да
Forced : Нет

Меню
00:00:00.000 : en:00:00:00.000
00:07:10.095 : en:00:07:10.096
00:14:39.836 : en:00:14:39.837
00:20:55.461 : en:00:20:55.463
00:26:52.108 : en:00:26:52.110
00:33:16.743 : en:00:33:16.745
00:39:48.091 : en:00:39:48.094
00:44:53.104 : en:00:44:53.107
00:53:08.306 : en:00:53:08.310
01:00:05.515 : en:01:00:05.519
01:08:40.737 : en:01:08:40.742
01:18:41.253 : en:01:18:41.258

piratbit.pw



Скачать Гости через торрент https://a.radikal.ru/a26/1904/a5/4778774fbcbc.png Скачать фильм Гости через торрент бесплантно в хорошем качестве Описание: Юная Катя знакомится с веселой компанией приезжих ребят, у которых есть специфическое развлечение - устраивать вечеринки в чужих ... 10 10 5
Торрент: Зарегистрирован [2019-07-22 09:07] · скачан: 91 раз
Статус: √ проверено
Размер: 6.56 GB
Как cкачать? Как скачать Гости через торрент | qTorrent

% Раздел Тема Автор DL S | L
Детские отечественные фильмы [ 76.36 GB ] В гостях у сказки 1 1939-2009 [ сказка DVDRip] Андрей фил Скачать
6 | 0
Детские отечественные фильмы [ 44.68 GB ] В гостях у сказки. Часть 2 DVDRip [ сказка DVDRip] Андрей фил Скачать
6 | 0
Видео для КПК и Смартфонов [ 1.06 GB ] Гостья из будущего [1984 СССР Детский ] DVDRip от R.G.RealMT Azazel Скачать
1 | 0
Мамочки [ 286 MB ] Сисястая мамашка пригласила в гости членомонстра / Joslyn James . [2013 All Sex Oral Big Dick Interracial MILF. DVDRip] Pir@tya2010 Скачать
1 | 0
Документальные фильмы и телепередачи [ 563 MB ] Юрий Болдырев. Встреча с гостями радиопередачи «Народный интерес» [2013 документальный WEBRip Оригинал] metanoia Скачать
1 | 0
Фильмы до 2000 г. [ 793 MB ] Хозяйка гостиницы / La locandiera [ 1980 Италия TVRip Любительский одноголосый ] ФёдорOFF Скачать
1 | 0
Документальные фильмы и телепередачи [ 170 MB ] Русская гостиная выпуск 5. Кремлевское варево [2013 документальный WEBRip Оригинал] metanoia Скачать
1 | 0

28-11-2019 20:33  

Отключить всю рекламу на сайте

22-07-2019 12:12 Гости Скачать торрент  

Только и могут копировать пиндосовскую туфту...piratbit.pw



    Дорогой пользователь! Огромная просьба, поблагодарите релизера, оцените раздачу и оставьте свои комментарий, если Вы скачали Гости через торрент бесплатно! Внесите свою лепту в развитие PiratBit!
    Комментировать посты могут только пользователи прошедшие не сложную регистрацию
    Показать сообщения:    

    Гости через торрент
    Скачать бесплатно Гости
    Гости скачать торрент
    Гости смотреть онлайн
    Cкачать фильм Гости бесплатно
    Гости скачать торрент в хорошем качестве
    Гости смотреть онлайн бесплатно в хорошем качестве


    Вы не можете начинать темы
    Вы не можете отвечать на сообщения
    Вы не можете редактировать свои сообщения
    Вы не можете удалять свои сообщения
    Вы не можете голосовать в опросах
    Вы не можете прикреплять файлы к сообщениям
    Вы можете скачивать файлы