1 сезон

1 сезон

iTunes

1

КиноПоиск HD

Кинопоиск HD

iTunes

13

1 сезон

RePack

30

Новинка

ВАЖНО

ИГРА 18+

pack

RePack

MK11
pack

Легкие деньги

RePack

jed

RePack

fifa19

RePack

RDR2

RePack

NEED FOR SPEED™ PAYBACK

4 сезон

9 сезон

Бесстыжие 9 сезон

Все сериалы

все сериалы на PB.wtf

RePack

FAR CRY 5
  
Magnet ссылка

Ветер демонов / Demon Wind (Чарльз Филип Мур) [1990, ужасы, BDRip 720p by msltel] 3 x AVO piratbit.pw

Ветер демонов через торрент piratbit.pw

Размер: 4.98 GB | Добавлен: 1 год 8 мес. назад | Торрент скачан:8 раз
Скачать  

22-07-2019 05:07 Ветер демонов Скачать торрент  

Название: Ветер демонов
Оригинальное название: Demon Wind
Год выпуска: 1990
Страна: США
Жанр: ужасы
Продолжительность: 01:37:59
Перевод: авторский

Режиссер: Чарльз Филип Мур
В ролях: Эрик Ларсон, Руфус Норрис, Джек Фогель, Стивен Квадрос, Марк Дэвид Фрицше, Шерри Ли, Бобби Джонстон, Линн Кларк, Ричард Габай

О фильме: После последней встречи Кори с отцом старик покончил с собой: вскрыл себе вены. Это стало последней каплей, ведь и раньше на ферме отца творилось что-то неладное. И вот, Кори с друзьями приехал на старую ферму, чтобы во всём разобраться. Они останавливаются в придорожном кафе с заправкой, и его пожилой владелец очень настоятельно не рекомендует им ехать дальше. Но Кори полон решимости докопаться до истины. Последним предупреждением становится распятый скелет у въезда на ферму. Машины друзей глохнут, будто сговорившись, и весёлая компания оказывается в ловушке. Выбраться из неё удастся немногим, ведь им будут противостоять и силы ада, и примкнувшие к ним толпы зомби. В довольно путаной и нелогичной концовке Кори сможет спастись и проникнуть в мрачную историю своей семьи. (Википедия)



Качество: BDRip 720p
Формат: MKV
Видео: MPEG-4 AVC, 6246 Kбит/с, 1280x690
Аудио 1: русский, AC3, 192 kbps, 2 ch, 48 kHz [авторский, Андрей Гаврилов]
Аудио 2: русский, AC3, 192 kbps, 2 ch, 48 kHz [авторский, Василий Горчаков]
Аудио 3: русский, AC3, 192 kbps, 2 ch, 48 kHz [авторский, Михаил Иванов]
Аудио 4: английский, AC3, 448 kbps, 5 ch, 48 kHz [оригинал]
Субтитры: английские (PGS)
Главы/чаптеры
Общее
Уникальный идентификатор : 218134879570455206717521199953478322508 (0xA41B3FE8EE7E0F6DBFC8FB2112DA894C)
Полное имя : D:\Video\Ветер демонов.1990.BDRip 720p by msltel.mkv
Формат : Matroska
Версия формата : Version 4
Размер файла : 4,98 Гбайт
Продолжительность : 1 ч. 37 м.
Общий поток : 7278 Кбит/сек
Название фильма : Rip by msltel
Дата кодирования : UTC 2019-07-21 15:42:39
Программа кодирования : mkvmerge v8.2.0 ('World of Adventure') 64bit
Библиотека кодирования : libebml v1.3.1 + libmatroska v1.4.2

Видео
Идентификатор : 1
Формат : AVC
Формат/Информация : Advanced Video Codec
Профиль формата : High@L4.1
Настройки формата : CABAC / 9 Ref Frames
Параметр CABAC формата : Да
Параметр RefFrames формата : 9 кадров
Идентификатор кодека : V_MPEG4/ISO/AVC
Продолжительность : 1 ч. 37 м.
Битрейт : 6246 Кбит/сек
Ширина : 1280 пикселей
Высота : 690 пикселей
Соотношение сторон : 1,85:1
Режим частоты кадров : Постоянный
Частота кадров : 23,976 (24000/1001) кадра/сек
Цветовое пространство : YUV
Субдискретизация насыщенности : 4:2:0
Битовая глубина : 8 бит
Тип развёртки : Прогрессивная
Бит/(Пиксели*Кадры) : 0.295
Размер потока : 4,28 Гбайт (86%)
Библиотека кодирования : x264 core 157 r2935 545de2f
Настройки программы : cabac=1 / ref=9 / deblock=1:-2:-2 / analyse=0x3:0x113 / me=umh / subme=11 / psy=1 / psy_rd=1.00:0.15 / mixed_ref=1 / me_range=32 / chroma_me=1 / trellis=2 / 8x8dct=1 / cqm=0 / deadzone=21,11 / fast_pskip=0 / chroma_qp_offset=-3 / threads=6 / lookahead_threads=1 / sliced_threads=0 / nr=0 / decimate=1 / interlaced=0 / bluray_compat=0 / constrained_intra=0 / bframes=9 / b_pyramid=2 / b_adapt=2 / b_bias=0 / direct=1 / weightb=1 / open_gop=0 / weightp=2 / keyint=230 / keyint_min=23 / scenecut=40 / intra_refresh=0 / rc_lookahead=40 / rc=crf / mbtree=1 / crf=20.0 / qcomp=0.60 / qpmin=0 / qpmax=69 / qpstep=4 / vbv_maxrate=50000 / vbv_bufsize=62500 / crf_max=0.0 / nal_hrd=none / filler=0 / ip_ratio=1.40 / aq=1:1.00
Язык : English
Default : Да
Forced : Нет

Аудио #1
Идентификатор : 2
Формат : AC-3
Формат/Информация : Audio Coding 3
Коммерческое название : Dolby Digital
Идентификатор кодека : A_AC3
Продолжительность : 1 ч. 37 м.
Вид битрейта : Постоянный
Битрейт : 192 Кбит/сек
Каналы : 2 канала
ChannelLayout : L R
Частота : 48,0 КГц
Частота кадров : 31,250 кадров/сек (1536 SPF)
Битовая глубина : 16 бит
Метод сжатия : С потерями
Размер потока : 135 Мбайт (3%)
Заголовок : Андрей Гаврилов
Язык : Russian
ServiceKind/String : Complete Main
Default : Да
Forced : Нет

Аудио #2
Идентификатор : 3
Формат : AC-3
Формат/Информация : Audio Coding 3
Коммерческое название : Dolby Digital
Идентификатор кодека : A_AC3
Продолжительность : 1 ч. 37 м.
Вид битрейта : Постоянный
Битрейт : 192 Кбит/сек
Каналы : 2 канала
ChannelLayout : L R
Частота : 48,0 КГц
Частота кадров : 31,250 кадров/сек (1536 SPF)
Битовая глубина : 16 бит
Метод сжатия : С потерями
Размер потока : 135 Мбайт (3%)
Заголовок : Василий Горчаков
Язык : Russian
ServiceKind/String : Complete Main
Default : Нет
Forced : Нет

Аудио #3
Идентификатор : 4
Формат : AC-3
Формат/Информация : Audio Coding 3
Коммерческое название : Dolby Digital
Идентификатор кодека : A_AC3
Продолжительность : 1 ч. 37 м.
Вид битрейта : Постоянный
Битрейт : 192 Кбит/сек
Каналы : 2 канала
ChannelLayout : L R
Частота : 48,0 КГц
Частота кадров : 31,250 кадров/сек (1536 SPF)
Битовая глубина : 16 бит
Метод сжатия : С потерями
Размер потока : 135 Мбайт (3%)
Заголовок : Михаил Иванов
Язык : Russian
ServiceKind/String : Complete Main
Default : Нет
Forced : Нет

Аудио #4
Идентификатор : 5
Формат : AC-3
Формат/Информация : Audio Coding 3
Коммерческое название : Dolby Digital
Идентификатор кодека : A_AC3
Продолжительность : 1 ч. 37 м.
Вид битрейта : Постоянный
Битрейт : 448 Кбит/сек
Каналы : 5 каналов
ChannelLayout : L R C Ls Rs
Частота : 48,0 КГц
Частота кадров : 31,250 кадров/сек (1536 SPF)
Битовая глубина : 16 бит
Метод сжатия : С потерями
Размер потока : 314 Мбайт (6%)
Заголовок : original
Язык : English
ServiceKind/String : Complete Main
Default : Нет
Forced : Нет

Текст
Идентификатор : 6
Формат : PGS
Режим смешивания : zlib
Идентификатор кодека : S_HDMV/PGS
Идентификатор кодека/Информация : Picture based subtitle format used on BDs/HD-DVDs
Продолжительность : 1 ч. 34 м.
Битрейт : 5476 бит/сек
ElementCount : 2440
Размер потока : 3,71 Мбайт (0%)
Заголовок : английские
Язык : English
Default : Нет
Forced : Нет

Меню
00:00:00.000 : :Chapter 01
00:22:11.330 : :Chapter 02
00:42:22.039 : :Chapter 03
00:59:58.094 : :Chapter 04
01:18:58.734 : :Chapter 05
01:37:59.832 : :Chapter 06
piratbit.pw



Скачать Ветер демонов через торрент https://a.radikal.ru/a36/1907/c9/f32aeb4366be.png Скачать фильм Ветер демонов через торрент бесплантно в хорошем качестве О фильме: После последней встречи Кори с отцом старик покончил с собой: вскрыл себе вены. Это стало последней каплей, ведь и раньше на ... 10 10 1
Торрент: Зарегистрирован [2019-07-22 05:07] · скачан: 8 раз
Статус: √ проверено
Размер: 4.98 GB
Как cкачать? Как скачать Ветер демонов через торрент | UTorrent

% Раздел Тема Автор DL S | L
Фильмы с авторской озвучкой [ 12.56 GB ] Ветер демонов / Demon Wind [1990 BDRip 1080p by msltel] 3 x AVO msltel Скачать
1 | 0

28-11-2019 20:33  

Отключить всю рекламу на сайте

    Дорогой пользователь! Огромная просьба, поблагодарите релизера, оцените раздачу и оставьте свои комментарий, если Вы скачали Ветер демонов через торрент бесплатно! Внесите свою лепту в развитие PiratBit!
    Комментировать посты могут только пользователи прошедшие не сложную регистрацию
    Показать сообщения:    

    Ветер демонов через торрент
    Скачать бесплатно Ветер демонов
    Ветер демонов скачать торрент
    Ветер демонов смотреть онлайн
    Cкачать фильм Ветер демонов бесплатно
    Ветер демонов скачать торрент в хорошем качестве
    Ветер демонов смотреть онлайн бесплатно в хорошем качестве


    Вы не можете начинать темы
    Вы не можете отвечать на сообщения
    Вы не можете редактировать свои сообщения
    Вы не можете удалять свои сообщения
    Вы не можете голосовать в опросах
    Вы не можете прикреплять файлы к сообщениям
    Вы можете скачивать файлы