2 сезон

iTunes

1 сезон

1

iTunes

iTunes

iTunes

1 сезон

RePack

30

ИГРА 18+

pack

ВАЖНО

!!Акция!!

Alien_RageХит недели

RePack

MK11
pack

Забери бонус

RePack

jed

!!Акция!!

Alien_Rage

RePack

fifa19

RePack

Assassins Creed: Odyssey

RePack

NEED FOR SPEED™ PAYBACK

4 сезон

9 сезон

Бесстыжие 9 сезон

Все сериалы

все сериалы на PB.wtf

RePack

FAR CRY 5
  

Внезапно, прошлым летом / Suddenly, Last Summer (Джозеф Лео Манкевич) [1959 г., Триллер, драма, детектив, экранизация, BDRip 720p от KORSAR][MVO] piratbit.pw

Внезапно, прошлым летом через торрент piratbit.pw

Размер: 7.55 GB | Добавлен: 1 год 3 мес. назад | Торрент скачан:4 раза
Скачать  

17-07-2019 20:36 Внезапно, прошлым летом Скачать торрент  

Название: Внезапно, прошлым летом
Оригинальное название: Suddenly, Last Summer
Год выпуска: 1959
Жанр: Триллер, драма, детектив, экранизация

Режиссер: Джозеф Лео Манкевич
В ролях: Элизабет Тейлор, Кэтрин Хепбёрн, Монтгомери Клифт, Альберт Деккер, Мерседес МакКэмбридж, Гари Рэймонд, Мевис Виллерс, Патриция Мармот, Джоан Янг, Мария Бритнева, Шейла Роббинс, Дэвид Кэмерон

О фильме: Экранизация одноименной пьесы Теннесси Уильямса.
1937 год. Доктор-нейрохирург Кукровиц делает передовые операции на мозге - лоботомию. Его клиника очень нуждается в деньгах. Неожиданное предложение богатой вдовы миссис Виолет Вэнебл спонсировать строительство больницы взамен на согласие доктора сделать операцию лоботомии её душевнобольной племяннице Кэтрин Холли оказывается как нельзя кстати. Мучительные сомнения начинают одолевать доктора после знакомства с Кэтрин. Девушка испытала психическое потрясение прошлым летом: она стала свидетельницей смерти сына миссис Вэнебл Себастьяна в мексиканской деревушке, куда они вдвоём ездили отдыхать. И, как выясняется, за этой смертью кроется страшная семейная тайна…

rating

Продолжительность: 01:54:16
Выпущено: США, Columbia Pictures Corporation, Horizon Pictures (II)
Перевод: Профессиональный многоголосый

Качество: BDRip 720p
Формат: MKV
Видео: MPEG-4 AVC, 8877 Кбит/сек, 1280x720, 23,976 кадра/сек
Аудио #1: AC3, 2 ch, 192 Кбит/сек | Русский, профессиональный (многоголосый закадровый) 1 канал
Аудио #2: AC3, 2 ch, 384 Кбит/сек | Английский, оригинал
Субтитры: Английские, итальянские, французские, немецкие, испанские, голландские, сербские, чешские
Навигация по главам: Есть
Релиз от:
x264 [info]: frame I:1030 Avg QP:17.20 size:202602
x264 [info]: frame P:34136 Avg QP:19.76 size: 92631
x264 [info]: frame B:129213 Avg QP:20.97 size: 32776
-----------------------------------------------------
Общее
Уникальный идентификатор : 217846381956858263498130896368988526757 (0xA3E3AFE11D1EDAA5AAFA766E68DB18A5)
Полное имя : Внезапно.прошлым.летом.1959.BDRip.720p.KORSAR.mkv
Формат : Matroska
Версия формата : Version 2
Размер файла : 7,55 Гбайт
Продолжительность : 1 ч. 54 м.
Общий поток : 9454 Кбит/сек
Дата кодирования : UTC 2018-05-27 09:34:12
Программа кодирования : mkvmerge v5.8.0 ('No Sleep / Pillow') built on Sep 2 2012 15:37:04
Библиотека кодирования : libebml v1.2.3 + libmatroska v1.3.0

Видео
Идентификатор : 1
Формат : AVC
Формат/Информация : Advanced Video Codec
Профиль формата : High@L4.1
Настройки формата : CABAC / 9 Ref Frames
Параметр CABAC формата : Да
Параметр RefFrames формата : 9 кадров
Идентификатор кодека : V_MPEG4/ISO/AVC
Продолжительность : 1 ч. 54 м.
Битрейт : 8877 Кбит/сек
Ширина : 1280 пикселей
Высота : 720 пикселей
Соотношение сторон : 16:9
Режим частоты кадров : Постоянный
Частота кадров : 23,976 (24000/1001) кадра/сек
Цветовое пространство : YUV
Субдискретизация насыщенности : 4:2:0
Битовая глубина : 8 бит
Тип развёртки : Прогрессивная
Бит/(Пиксели*Кадры) : 0.402
Размер потока : 6,94 Гбайт (92%)
Заголовок : RIP | MZMA
Библиотека кодирования : x264 core 152 r2851kMod ba24899
Настройки программы : cabac=1 / ref=9 / deblock=1:-3:-3 / analyse=0x3:0x113 / me=umh / subme=11 / psy=1 / fade_compensate=0.00 / psy_rd=1.05:0.10 / mixed_ref=1 / me_range=48 / chroma_me=1 / trellis=2 / 8x8dct=1 / cqm=0 / deadzone=21,11 / fast_pskip=0 / chroma_qp_offset=-3 / threads=6 / lookahead_threads=1 / sliced_threads=0 / nr=0 / decimate=0 / interlaced=0 / bluray_compat=0 / constrained_intra=0 / bframes=16 / b_pyramid=2 / b_adapt=2 / b_bias=0 / direct=3 / weightb=1 / open_gop=0 / weightp=2 / keyint=240 / keyint_min=23 / scenecut=40 / intra_refresh=0 / rc_lookahead=40 / rc=2pass / mbtree=0 / bitrate=8877 / ratetol=1.0 / qcomp=0.60 / qpmin=0 / qpmax=69 / qpstep=4 / cplxblur=20.0 / qblur=0.5 / vbv_maxrate=50000 / vbv_bufsize=62500 / nal_hrd=none / filler=0 / ip_ratio=1.40 / pb_ratio=1.30 / aq=2:1.00
Язык : English
Default : Да
Forced : Нет
Цветовой диапазон : Limited
Основные цвета : BT.709
Характеристики трансфера : BT.709
Коэффициенты матрицы : BT.709

Аудио #1
Идентификатор : 2
Формат : AC-3
Формат/Информация : Audio Coding 3
Идентификатор кодека : A_AC3
Продолжительность : 1 ч. 54 м.
Вид битрейта : Постоянный
Битрейт : 192 Кбит/сек
Каналы : 2 канала
Расположение каналов : Front: L R
Частота : 48,0 КГц
Частота кадров : 31,250 кадров/сек (1536 SPF)
Битовая глубина : 16 бит
Метод сжатия : С потерями
Размер потока : 157 Мбайт (2%)
Заголовок : MVO | 1 канал
Язык : Russian
По умолчанию : Да
Принудительно : Нет

Аудио #2
Идентификатор : 3
Формат : AC-3
Формат/Информация : Audio Coding 3
Идентификатор кодека : A_AC3
Продолжительность : 1 ч. 54 м.
Вид битрейта : Постоянный
Битрейт : 384 Кбит/сек
Каналы : 2 канала
Расположение каналов : Front: L R
Частота : 48,0 КГц
Частота кадров : 31,250 кадров/сек (1536 SPF)
Битовая глубина : 16 бит
Метод сжатия : С потерями
Размер потока : 314 Мбайт (4%)
Заголовок : Original
Язык : English
По умолчанию : Нет
Принудительно : Нет

Текст #1
Идентификатор : 4
Формат : UTF-8
Идентификатор кодека : S_TEXT/UTF8
Идентификатор кодека/Информация : UTF-8 Plain Text
Заголовок : 1
Язык : English
По умолчанию : Нет
Принудительно : Нет

Текст #2
Идентификатор : 5
Формат : UTF-8
Идентификатор кодека : S_TEXT/UTF8
Идентификатор кодека/Информация : UTF-8 Plain Text
Заголовок : 2
Язык : English
По умолчанию : Нет
Принудительно : Нет

Текст #3
Идентификатор : 6
Формат : UTF-8
Идентификатор кодека : S_TEXT/UTF8
Идентификатор кодека/Информация : UTF-8 Plain Text
Язык : Italian
По умолчанию : Нет
Принудительно : Нет

Текст #4
Идентификатор : 7
Формат : UTF-8
Идентификатор кодека : S_TEXT/UTF8
Идентификатор кодека/Информация : UTF-8 Plain Text
Язык : French
По умолчанию : Нет
Принудительно : Нет

Текст #5
Идентификатор : 8
Формат : UTF-8
Идентификатор кодека : S_TEXT/UTF8
Идентификатор кодека/Информация : UTF-8 Plain Text
Язык : German
По умолчанию : Нет
Принудительно : Нет

Текст #6
Идентификатор : 9
Формат : UTF-8
Идентификатор кодека : S_TEXT/UTF8
Идентификатор кодека/Информация : UTF-8 Plain Text
Язык : Spanish
По умолчанию : Нет
Принудительно : Нет

Текст #7
Идентификатор : 10
Формат : UTF-8
Идентификатор кодека : S_TEXT/UTF8
Идентификатор кодека/Информация : UTF-8 Plain Text
Язык : Dutch
По умолчанию : Нет
Принудительно : Нет

Текст #8
Идентификатор : 11
Формат : UTF-8
Идентификатор кодека : S_TEXT/UTF8
Идентификатор кодека/Информация : UTF-8 Plain Text
Язык : Serbian
По умолчанию : Нет
Принудительно : Нет

Текст #9
Идентификатор : 12
Формат : UTF-8
Идентификатор кодека : S_TEXT/UTF8
Идентификатор кодека/Информация : UTF-8 Plain Text
Язык : Czech
По умолчанию : Нет
Принудительно : Нет

Меню
00:00:00.000 : en:Chapter 1
00:08:38.935 : en:Chapter 2
00:35:23.538 : en:Chapter 3
00:52:50.667 : en:Chapter 4
01:09:03.180 : en:Chapter 5
01:27:26.157 : en:Chapter 6
01:52:57.103 : en:Chapter 7
piratbit.pw



Скачать Внезапно, прошлым летом через торрент http://b.radikal.ru/b20/1907/28/0852d067aff3.png Скачать фильм Внезапно, прошлым летом через торрент бесплантно в хорошем качестве О фильме: Экранизация одноименной пьесы Теннесси Уильямса.1937 год. Доктор-нейрохирург Кукровиц делает передовые операции на мозге - ... 10 10 2
Info! Золотая раздача, скачанное не засчитывается.
Торрент: Зарегистрирован [2019-07-17 20:36] · скачан: 4 раз
Статус: √ проверено
Размер: 7.55 GB
Как cкачать? Как скачать Внезапно, прошлым летом через торрент | qTorrent

% Раздел Тема Автор DL S | L
Классика зарубежного кино [ 1.45 GB ] Внезапно прошлым летом / Suddenly Last Summer [1959 BDRip] MVO koenig Скачать
1 | 0

28-11-2019 20:33  

Отключить всю рекламу на сайте

    Дорогой пользователь! Огромная просьба, поблагодарите релизера, оцените раздачу и оставьте свои комментарий, если Вы скачали Внезапно, прошлым летом через торрент бесплатно! Внесите свою лепту в развитие PiratBit!
    Комментировать посты могут только пользователи прошедшие не сложную регистрацию
    Показать сообщения:    

    Внезапно, прошлым летом через торрент
    Скачать бесплатно Внезапно, прошлым летом
    Внезапно, прошлым летом скачать торрент
    Внезапно, прошлым летом смотреть онлайн
    Cкачать фильм Внезапно, прошлым летом бесплатно
    Внезапно, прошлым летом скачать торрент в хорошем качестве
    Внезапно, прошлым летом смотреть онлайн бесплатно в хорошем качестве


    Вы не можете начинать темы
    Вы не можете отвечать на сообщения
    Вы не можете редактировать свои сообщения
    Вы не можете удалять свои сообщения
    Вы не можете голосовать в опросах
    Вы не можете прикреплять файлы к сообщениям
    Вы можете скачивать файлы