Ссылка на приватное зеркало всего за 1$. Внимание количество ограничено!!!

iTunes

iTunes

iTunes

1

iTunes

iTunes

iTunes

iTunes

iTunes

30
pack

$ от Little Big

ВАЖНО

!!Акция!!

Alien_RageХит недели

RePack

Resident Evil 21

ИГРА 18+

pack

RePack

jed

!!Акция!!

Alien_Rage

RePack

fifa19

RePack

Assassins Creed: Odyssey

RePack

NEED FOR SPEED™ PAYBACK

4 сезон

9 сезон

Бесстыжие 9 сезон

Все сериалы

все сериалы на PB.wtf

RePack

FAR CRY 5
  

Король Лев / The Lion King (Джон Фавро) [2019, мультфильм, мюзикл, драма, приключения, семейный, WEB-DL 1080p] DUB [iTunes] piratbit.pw

Король Лев через торрент piratbit.pw

Раздают: 8 [ 0 KB/s ]
Размер: 4.79 GB | Добавлен: 7 мес. назад | Торрент скачан:1207 раз
Скачать  

17-07-2019 04:19 Король Лев Скачать торрент  

Король Лев / The Lion King
Год выпуска: 2019
Страна: США
Жанр: мультфильм, мюзикл, драма, приключения, семейный
Продолжительность: 01:59:33
Перевод: Дублированный | iTunes
Субтитры: Русские (Full, SDH), английские

Режиссер: Джон Фавро

rating

В ролях: Джеймс Эрл Джонс, Дональд Гловер, Чиветель Эджиофор, Джон Оливер, Джон Кани, Элфри Вудард, Джейдон Маккрэри, Шахади Райт Джозеф, Пенни Джонсон, Кигэн-Майкл Ки

Описание: Действие фильма разворачивается в африканской саванне и повествует о молодом льве по имени Симба, который потерял своего отца Муфасу из-за своего злобного дяди Шрама и был изгнан из прайда в дальние края пустыни. Годы спустя он возвращается, чтобы вернуть себе трон.

Качество: WEB-DL 1080p
Формат: MKV

Видео: MPEG-4 AVC, 1920x1080, 4974 Kbit/s, 23.976 fps
Аудио #01: 48 kHz, AC3, 5.1, 384 Kbps | iTunes | RUS |
Аудио #02: 48 kHz, AC3, 5.1, 384 Kbps | Оригинал | ENG |
скриншот  скриншот  скриншот  скриншот  скриншот  

General
Unique ID : 109604546161162151207948523700195722435 (0x52751158043AB4C89F9A57F4977084C3)
Complete name : D:Video111The.Lion.King.2019.WEB-DL.1080p.seleZen.mkv
Format : Matroska
Format version : Version 4
File size : 4.79 GiB
Duration : 1 h 59 min
Overall bit rate : 5 736 kb/s
Movie name : The Lion King 2019 from селезень
Encoded date : UTC 2019-10-10 19:21:21
Writing application : mkvmerge v22.0.0 ('At The End Of The World') 64-bit
Writing library : libebml v1.3.5 + libmatroska v1.4.8

Video
ID : 1
Format : AVC
Format/Info : Advanced Video Codec
Format profile : High@L4
Format settings : CABAC / 4 Ref Frames
Format settings, CABAC : Yes
Format settings, Reference : 4 frames
Codec ID : V_MPEG4/ISO/AVC
Duration : 1 h 59 min
Bit rate : 4 974 kb/s
Width : 1 920 pixels
Height : 1 080 pixels
Display aspect ratio : 16:9
Frame rate mode : Constant
Frame rate : 23.976 (24000/1001) FPS
Color space : YUV
Chroma subsampling : 4:2:0
Bit depth : 8 bits
Scan type : Progressive
Bits/(Pixel*Frame) : 0.100
Stream size : 4.15 GiB (87%)
Language : English
Default : Yes
Forced : No
Color range : Limited
Color primaries : BT.709
Transfer characteristics : BT.709
Matrix coefficients : BT.709

Audio #1
ID : 2
Format : AC-3
Format/Info : Audio Coding 3
Commercial name : Dolby Digital
Codec ID : A_AC3
Duration : 1 h 58 min
Bit rate mode : Constant
Bit rate : 384 kb/s
Channel(s) : 6 channels
Channel layout : L R C LFE Ls Rs
Sampling rate : 48.0 kHz
Frame rate : 31.250 FPS (1536 SPF)
Bit depth : 16 bits
Compression mode : Lossy
Stream size : 325 MiB (7%)
Title : iTunes
Language : Russian
Service kind : Complete Main
Default : Yes
Forced : Yes

Audio #2
ID : 3
Format : AC-3
Format/Info : Audio Coding 3
Commercial name : Dolby Digital
Codec ID : A_AC3
Duration : 1 h 58 min
Bit rate mode : Constant
Bit rate : 384 kb/s
Channel(s) : 6 channels
Channel layout : L R C LFE Ls Rs
Sampling rate : 48.0 kHz
Frame rate : 31.250 FPS (1536 SPF)
Bit depth : 16 bits
Compression mode : Lossy
Stream size : 325 MiB (7%)
Title : Original
Language : English
Service kind : Complete Main
Default : No
Forced : No

Text #1
ID : 4
Format : UTF-8
Codec ID : S_TEXT/UTF8
Codec ID/Info : UTF-8 Plain Text
Duration : 1 h 55 min
Bit rate : 68 b/s
Count of elements : 1371
Stream size : 58.1 KiB (0%)
Title : Full
Language : Russian
Default : No
Forced : No

Text #2
ID : 5
Format : UTF-8
Codec ID : S_TEXT/UTF8
Codec ID/Info : UTF-8 Plain Text
Duration : 1 h 47 min
Bit rate : 89 b/s
Count of elements : 1642
Stream size : 70.4 KiB (0%)
Title : SDH
Language : Russian
Default : No
Forced : No

Text #3
ID : 6
Format : UTF-8
Codec ID : S_TEXT/UTF8
Codec ID/Info : UTF-8 Plain Text
Duration : 1 h 46 min
Bit rate : 50 b/s
Count of elements : 1369
Stream size : 39.1 KiB (0%)
Title : Full
Language : English
Default : No
Forced : No

Menu
00:00:00.000 : en:1
00:04:49.831 : en:2
00:10:50.399 : en:3
00:17:47.023 : en:4
00:23:52.346 : en:5
00:29:59.463 : en:6
00:33:04.397 : en:7
00:37:08.641 : en:8
00:43:42.242 : en:9
00:50:46.666 : en:10
00:55:02.046 : en:11
00:59:47.790 : en:12
01:06:26.563 : en:13
01:14:31.422 : en:14
01:18:25.739 : en:15
01:23:07.228 : en:16
01:28:03.983 : en:17
01:33:10.205 : en:18
01:37:13.072 : en:19
01:44:38.517 : en:20
01:47:46.663 : en:21
piratbit.pw



Скачать Король Лев через торрент https://a.radikal.ru/a39/1910/8d/5f51e8b7cf2e.jpg Скачать фильм Король Лев через торрент бесплантно в хорошем качестве Описание: Действие фильма разворачивается в африканской саванне и повествует о молодом льве по имени Симба, который потерял своего отца ... 9.6 10 38
Info! Золотая раздача, скачанное не засчитывается.
Торрент: Зарегистрирован [2019-10-10 19:39] · скачан: 1 207 раз
Статус: √ проверено
Размер: 4.79 GB
Как cкачать? Как скачать Король Лев через торрент | qTorrent

% Раздел Тема Автор DL S | L
Иностранные мультфильмы [ 795 MB ] Король Лев / The Lion King [2019 мультфильм мюзикл HDRip] DUB [] bober100 Скачать
3 | 0
Ultra HD (UHD: 2K, 4K, 8K) [ 24.36 GB ] Король Лев / The Lion King [2019 мультфильм мюзикл UHD BDRip 2160p] DUB [] bober100 Скачать
3 | 0
3D Мультфильмы [ 13.45 GB ] Король Лев 3Д / The Lion King 3D [2019 мультфильм мюзикл BDRip 1080p] [Anamorph SideBySide] DUB [] bober100 Скачать
2 | 0
Зарубежные Мультфильмы (BDRip 1080p, 720p, Blu-ray, BD-Remux) [ 7.01 GB ] Король Лев / The Lion King [2019 мультфильм мюзикл BDRip-HEVC 1080p ] DUB [] bober100 Скачать
11 | 0
Иностранные мультфильмы [ 2.36 GB ] Король Лев / The Lion King [2019 мультфильм мюзикл BDRip-AVC] DUB [] - ExKinoRay Enigma2010 Скачать
48 | 1
Зарубежные Мультфильмы (BDRip 1080p, 720p, Blu-ray, BD-Remux) [ 4.71 GB ] Король Лев / The Lion King [2019 мультфильм мюзикл BDRip 720p] DUB [] - ExKinoRay Enigma2010 Скачать
472 | 38
Зарубежные Мультфильмы (BDRip 1080p, 720p, Blu-ray, BD-Remux) [ 41.53 GB ] Король Лев / The Lion King [2019 мультфильм мюзикл Blu-ray EUR 1080p] DUB [] bober100 Скачать
1 | 0


Последний раз редактировалось: bober100 (2019-10-10 19:48), всего редактировалось 3 раз(а)

28-11-2019 20:33  

Отключить всю рекламу на сайте

10-10-2019 21:57 Король Лев Скачать торрент  

Благодарочка^^piratbit.pw



10-10-2019 22:44 Король Лев Скачать торрент  

Ждем 4кpiratbit.pw



    Дорогой пользователь! Огромная просьба, поблагодарите релизера, оцените раздачу и оставьте свои комментарий, если Вы скачали Король Лев через торрент бесплатно! Внесите свою лепту в развитие PiratBit!
    Комментировать посты могут только пользователи прошедшие не сложную регистрацию
    Показать сообщения:    

    Король Лев через торрент
    Скачать бесплатно Король Лев
    Король Лев скачать торрент
    Король Лев смотреть онлайн
    Cкачать фильм Король Лев бесплатно
    Король Лев скачать торрент в хорошем качестве
    Король Лев смотреть онлайн бесплатно в хорошем качестве


    Вы не можете начинать темы
    Вы не можете отвечать на сообщения
    Вы не можете редактировать свои сообщения
    Вы не можете удалять свои сообщения
    Вы не можете голосовать в опросах
    Вы не можете прикреплять файлы к сообщениям
    Вы можете скачивать файлы