новый адрес
Ссылка на приватное зеркало всего за 1$. Внимание количество ограничено!!!

iTunes

1+1

iTunes

мы

WEB-DL

1

iTunes

Чернобыль

iTunes

Ральф против интернета

Лицензия

ПШазам

Лицензия

Оно 2

Лицензия

30
pack

Вам бонус

ВАЖНО

!!Акция!!

Alien_RageХит недели

RePack

Resident Evil 21

ИГРА 18+

pack

RePack

jed

!!Акция!!

Alien_Rage

RePack

fifa19

RePack

Assassins Creed: Odyssey

RePack

NEED FOR SPEED™ PAYBACK

3 сезон

9 сезон

Бесстыжие 9 сезон

Все сериалы

все сериалы на PB.wtf

RePack

FAR CRY 5
Ребята, катастрофически не хватает 1900р. для оплаты серверов за Октябрь (всвязи с блокировками трафик упал в 3 раза), 1-2р., выручайте.
  

Снегопад / Snowfall / Сезон: 3 / Серия: 1-10 из 10 (Дэниэл Эттиэс, Майкл Леманн, Джон Синглтон) [2019, Драма, криминал, WEB-DL 1080p] [MVO] (NewStudio) + [DVO] (Кубик в Кубе) piratbit.pw

Снегопад через торрент piratbit.pw

Размер: 37.55 GB | Добавлен: 2 мес. 20 д. назад | Торрент скачан:6 раз
Скачать  

16-07-2019 19:08 Снегопад Скачать торрент  

Снегопад | Snowfall
Год выпуска: 2019
Страна: США
Жанр: Драма, криминал
Продолжительность: ~ 00:50:00
Перевод №1: Профессиональный (многоголосый закадровый) | NewStudio
Перевод №2: Профессиональный (двухголосый закадровый) | Кубик в Кубе
Режиссёр: Дэниэл Эттиэс, Майкл Леманн, Джон Синглтон

В ролях: Демсон Идрис, Серхио Перис-Менчета, Айзиа Джон, Эймин Джозеф, Клаудия Абрего, Рой Авигдори, Лиана Легаспи, Адам Карст, Бернардо Бадилло, Ник Бишоп, Маркис Мур, Альберт А Вега, Розалинд Лотт, Алон Абутбул, Катрин Чен, Иоланда Инглиш, Тейлор Ковальски, Элли Патрикиос, Тринити Стоукс и др.
Описание: Сериал о начале кокаиновой эпидемии в Лос-Анджелесе начала 1980-х, когда на улицах Америки появился дешёвый крэк из Доминиканы, и страну захлестнул неконтролируемый рост преступности.

rating
Качество: WEB-DL 1080p
Формат: MKV
Видео: AVC, 1920х1080, ~9700 Kbps, 23.976 fps
Аудио №1: AC3, 48,0 kHz, 6 ch, 384 kbps | NewStudio
Аудио №2: AC3, 48,0 kHz, 6 ch, 640 kbps | Кубик в Кубе*
Аудио №3: AC3, 48,0 kHz, 6 ch, 640 kbps | Original
Субтитры: Русские (Forced |«NewStudio»|, английские (SDH)

Реклама: Отсутствует
Исходник: Snowfall.S03.1080p.AMZN.WEB-DL.DDP5.1.x264-NTb
Complete name : D:\Shows\Snowfall_(s03)_1080p\Snowfall.2019.S03E01.Protect.and.Swerve.1080p.AMZN.WEB-DL.DD5.1.x264-NTb.mkv
Format : Matroska
Format version : Version 2
File size : 4.05 GiB
Duration : 49 min 59 s
Overall bit rate : 11.6 Mb/s
Encoded date : UTC 2019-07-17 17:38:50
Writing application : mkvmerge v4.9.1 ('Ich will') сборка от Jul 11 2011 23:53:15
Writing library : libebml v1.2.1 + libmatroska v1.1.1

Video
ID : 1
Format : AVC
Format/Info : Advanced Video Codec
Format profile : High@L4
Format settings : CABAC / 4 Ref Frames
Format settings, CABAC : Yes
Format settings, ReFrames : 4 frames
Codec ID : V_MPEG4/ISO/AVC
Duration : 49 min 59 s
Bit rate : 9 699 kb/s
Width : 1 920 pixels
Height : 1 080 pixels
Display aspect ratio : 16:9
Frame rate mode : Constant
Frame rate : 23.976 (24000/1001) FPS
Color space : YUV
Chroma subsampling : 4:2:0
Bit depth : 8 bits
Scan type : Progressive
Bits/(Pixel*Frame) : 0.195
Stream size : 3.39 GiB (84%)
Title : Release by EniaHD
Language : English
Default : Yes
Forced : No
Color range : Limited
Color primaries : BT.709
Transfer characteristics : BT.709
Matrix coefficients : BT.709

Audio #1
ID : 2
Format : AC-3
Format/Info : Audio Coding 3
Commercial name : Dolby Digital
Codec ID : A_AC3
Duration : 49 min 59 s
Bit rate mode : Constant
Bit rate : 384 kb/s
Channel(s) : 6 channels
Channel layout : L R C LFE Ls Rs
Sampling rate : 48.0 kHz
Frame rate : 31.250 FPS (1536 SPF)
Bit depth : 16 bits
Compression mode : Lossy
Stream size : 137 MiB (3%)
Title : NewStudio
Language : Russian
Service kind : Complete Main
Default : Yes
Forced : No

Audio #2
ID : 3
Format : AC-3
Format/Info : Audio Coding 3
Commercial name : Dolby Digital
Codec ID : A_AC3
Duration : 49 min 59 s
Bit rate mode : Constant
Bit rate : 640 kb/s
Channel(s) : 6 channels
Channel layout : L R C LFE Ls Rs
Sampling rate : 48.0 kHz
Frame rate : 31.250 FPS (1536 SPF)
Bit depth : 16 bits
Compression mode : Lossy
Stream size : 229 MiB (6%)
Title : Кубик в Кубе
Language : Russian
Service kind : Complete Main
Default : No
Forced : No

Audio #3
ID : 4
Format : AC-3
Format/Info : Audio Coding 3
Commercial name : Dolby Digital
Codec ID : A_AC3
Duration : 49 min 59 s
Bit rate mode : Constant
Bit rate : 640 kb/s
Channel(s) : 6 channels
Channel layout : L R C LFE Ls Rs
Sampling rate : 48.0 kHz
Frame rate : 31.250 FPS (1536 SPF)
Bit depth : 16 bits
Compression mode : Lossy
Stream size : 229 MiB (6%)
Language : English
Service kind : Complete Main
Default : No
Forced : No

Text #1
ID : 5
Format : ASS
Codec ID : S_TEXT/ASS
Codec ID/Info : Advanced Sub Station Alpha
Compression mode : Lossless
Title : Forced |NewStudio|
Language : Russian
Default : Yes
Forced : No

Text #2
ID : 6
Format : UTF-8
Codec ID : S_TEXT/UTF8
Codec ID/Info : UTF-8 Plain Text
Title : SDH
Language : English
Default : No
Forced : No
При каждом добавлении создаётся новый торрент. Чтобы начать докачку новой серии, пользователям необходимо сделать следующее:
- остановить скачивание;
- удалить старый торрент у себя из клиента (старые серии удалять не надо);
- скачать новый торрент и запустить его у себя в клиенте вместо старого, при этом указать клиенту путь в старую папку, куда и должно происходить скачивание новых серий.
скриншот  скриншот  скриншот  
piratbit.pw



Скачать Снегопад через торрент https://c.radikal.ru/c13/1907/e7/7075a77729cd.png Скачать фильм Снегопад через торрент бесплантно в хорошем качестве Описание: Сериал о начале кокаиновой эпидемии в Лос-Анджелесе начала 1980-х, когда на улицах Америки появился дешёвый крэк из Доминиканы, и ... 8.2 10 5
Торрент: Зарегистрирован [2019-09-19 19:33] · скачан: 6 раз
Статус: √ проверено
Размер: 37.55 GB
Как cкачать? Как скачать Снегопад через торрент | qTorrent

% Раздел Тема Автор DL S | L
Зарубежные сериалы [ 17.44 GB ] Снегопад / Snowfall / Сезон: 3 / Серия: 1-10 из 10 [2019 WEB-DL 720p] [MVO] killermax2013 Скачать
1 | 0
Зарубежные сериалы [ 23.93 GB ] Снегопад / Snowfall / Сезон: 3 / Серии: 1-10 из 10 [2019 WEBRip 1080p] MVO [IdeaFilm] bober100 Скачать
1 | 0
T Зарубежные сериалы [ 16.5 GB ] Снегопад / Snowfall / Сезон: 3 / Серии: 1-10 из 10 [2019 WEBRip 720p] MVO [IdeaFilm] bober100 Скачать
1 | 0
Зарубежные сериалы [ 7.46 GB ] Снегопад / Snowfall / Сезон: 3 / Серии: 1-10 из 10 [2019 WEB-DLRip] MVO [TVShows] bober100 Скачать
1 | 0
Зарубежные сериалы [ 35.61 GB ] Снегопад / Snowfall / Сезон: 3 / Серия: 1-10 из 10 [2019 WEB-DL 1080p] [MVO] killermax2013 Скачать
1 | 0
Зарубежные сериалы [ 8.75 GB ] Снегопад / Snowfall / Сезон: 3 / Серии: 1-10 из 10 [2019 WEB-DLRip] [MVO] killermax2013 Скачать
1 | 0
Зарубежные сериалы [ 9 GB ] Снегопад / Snowfall / Сезон: 3 / Серия: 1-10 из 10 [2019 WEB-DLRip] [MVO] killermax2013 Скачать
1 | 0


Последний раз редактировалось: killermax2013 (2019-08-16 08:18), всего редактировалось 2 раз(а)

28-11-2019 20:33  

Отключить всю рекламу на сайте

    Дорогой пользователь! Огромная просьба, поблагодарите релизера, оцените раздачу и оставьте свои комментарий, если Вы скачали Снегопад через торрент бесплатно! Внесите свою лепту в развитие PiratBit!
    Комментировать посты могут только пользователи прошедшие не сложную регистрацию
    Показать сообщения:    

    Снегопад через торрент
    Скачать бесплатно Снегопад
    Снегопад скачать торрент
    Снегопад смотреть онлайн
    Cкачать фильм Снегопад бесплатно
    Снегопад скачать торрент в хорошем качестве
    Снегопад смотреть онлайн бесплатно в хорошем качестве


    Вы не можете начинать темы
    Вы не можете отвечать на сообщения
    Вы не можете редактировать свои сообщения
    Вы не можете удалять свои сообщения
    Вы не можете голосовать в опросах
    Вы не можете прикреплять файлы к сообщениям
    Вы можете скачивать файлы