Ссылка на приватное зеркало нашего сайта всего за 1$. Внимание количество ограничено!!!

2 сезон

iTunes

1 сезон

1

iTunes

iTunes

iTunes

1 сезон

RePack

30

ИГРА 18+

pack

ВАЖНО

!!Акция!!

Alien_RageХит недели

RePack

MK11
pack

Забери бонус

RePack

jed

!!Акция!!

Alien_Rage

RePack

fifa19

RePack

Assassins Creed: Odyssey

RePack

NEED FOR SPEED™ PAYBACK

4 сезон

9 сезон

Бесстыжие 9 сезон

Все сериалы

все сериалы на PB.wtf

RePack

FAR CRY 5
  

Раскрашенная долина / The Painted Desert (Ховард Хиггин) [1931, вестерн, BDRip 720p by msltel] DVO piratbit.pw

Раскрашенная долина через торрент piratbit.pw

Размер: 2.45 GB | Добавлен: 1 год 3 мес. назад | Торрент скачан:6 раз
Скачать  

16-07-2019 06:08 Раскрашенная долина Скачать торрент  

Название: Раскрашенная долина
Оригинальное название: The Painted Desert
Год выпуска: 1931
Страна: США
Жанр: вестерн
Продолжительность: 01:16:10
Перевод: закадровый двухголосый

Режиссер: Ховард Хиггин
В ролях: Уильям Бойд, Хелен Твелвтрис, Кларк Гейбл, Уильям Фарнум, Дж. Фаррелл МакДональд, Чарльз Селлон, Хью Адамс, Вэйд Ботелер, Уилл Уоллин, Эдмунд Бриси

О фильме: Пересекая Аризонскую равнину с востока на запад, два давних друга Бил Кэш и Джеф Кэмерон находят оставленный фургон переселенцев и в нём брошенного грудного ребенка. Друзья решают усыновить мальчика и назвать Биллом Бойдом. Но кто станет приёмным отцом? Из-за этого вопроса друзья в одночасье становятся заклятыми врагами и только, спустя двадцать лет, когда мальчик вырастет и станет настоящим мужчиной, конфликт будет исчерпан. Билл Бойд заставит прежних друзей примириться и забыть разногласия...



Качество: BDRip 720p
Формат: MKV
Видео: MPEG-4 AVC, 4195 Kбит/с, 952x720, 23.976 Кадр/с
Аудио 1: русский, AC3, 224 kbps, 2 ch, 48 kHz [закадровый двухголосый, Светла]
Аудио 2: английский, AC3, 192 kbps, 2 ch, 48 kHz [оригинал]
Субтитры: английские
Главы/чаптеры
Общее
Уникальный идентификатор : 223870567110483100928527857256883287597 (0xA86BE72391E31A2C986B232CD4A3F62D)
Полное имя : D:\Video\Раскрашенная долина.1931.BDRip 720p by msltel.mkv
Формат : Matroska
Версия формата : Version 4
Размер файла : 2,45 Гбайт
Продолжительность : 1 ч. 16 м.
Общий поток : 4613 Кбит/сек
Название фильма : Rip by msltel
Дата кодирования : UTC 2019-07-16 02:08:59
Программа кодирования : mkvmerge v8.2.0 ('World of Adventure') 64bit
Библиотека кодирования : libebml v1.3.1 + libmatroska v1.4.2

Видео
Идентификатор : 1
Формат : AVC
Формат/Информация : Advanced Video Codec
Профиль формата : High@L4.1
Настройки формата : CABAC / 9 Ref Frames
Параметр CABAC формата : Да
Параметр RefFrames формата : 9 кадров
Идентификатор кодека : V_MPEG4/ISO/AVC
Продолжительность : 1 ч. 16 м.
Битрейт : 4195 Кбит/сек
Ширина : 952 пикселя
Высота : 720 пикселей
Соотношение сторон : 4:3
Режим частоты кадров : Постоянный
Частота кадров : 23,976 (24000/1001) кадра/сек
Цветовое пространство : YUV
Субдискретизация насыщенности : 4:2:0
Битовая глубина : 8 бит
Тип развёртки : Прогрессивная
Бит/(Пиксели*Кадры) : 0.255
Размер потока : 2,23 Гбайт (91%)
Библиотека кодирования : x264 core 157 r2935 545de2f
Настройки программы : cabac=1 / ref=9 / deblock=1:-2:-2 / analyse=0x3:0x113 / me=umh / subme=11 / psy=1 / psy_rd=1.00:0.15 / mixed_ref=1 / me_range=32 / chroma_me=1 / trellis=2 / 8x8dct=1 / cqm=0 / deadzone=21,11 / fast_pskip=0 / chroma_qp_offset=-3 / threads=6 / lookahead_threads=1 / sliced_threads=0 / nr=0 / decimate=1 / interlaced=0 / bluray_compat=0 / constrained_intra=0 / bframes=11 / b_pyramid=2 / b_adapt=2 / b_bias=0 / direct=1 / weightb=1 / open_gop=0 / weightp=2 / keyint=230 / keyint_min=23 / scenecut=40 / intra_refresh=0 / rc_lookahead=40 / rc=crf / mbtree=1 / crf=21.0 / qcomp=0.60 / qpmin=0 / qpmax=69 / qpstep=4 / vbv_maxrate=50000 / vbv_bufsize=62500 / crf_max=0.0 / nal_hrd=none / filler=0 / ip_ratio=1.40 / aq=1:1.00
Язык : English
Default : Да
Forced : Нет

Аудио #1
Идентификатор : 2
Формат : AC-3
Формат/Информация : Audio Coding 3
Коммерческое название : Dolby Digital
Идентификатор кодека : A_AC3
Продолжительность : 1 ч. 16 м.
Вид битрейта : Постоянный
Битрейт : 224 Кбит/сек
Каналы : 2 канала
ChannelLayout : L R
Частота : 48,0 КГц
Частота кадров : 31,250 кадров/сек (1536 SPF)
Битовая глубина : 16 бит
Метод сжатия : С потерями
Размер потока : 122 Мбайт (5%)
Заголовок : DVO Светла
Язык : Russian
ServiceKind/String : Complete Main
Default : Да
Forced : Нет

Аудио #2
Идентификатор : 3
Формат : AC-3
Формат/Информация : Audio Coding 3
Коммерческое название : Dolby Digital
Идентификатор кодека : A_AC3
Продолжительность : 1 ч. 16 м.
Вид битрейта : Постоянный
Битрейт : 192 Кбит/сек
Каналы : 2 канала
ChannelLayout : L R
Частота : 48,0 КГц
Частота кадров : 31,250 кадров/сек (1536 SPF)
Битовая глубина : 16 бит
Метод сжатия : С потерями
Размер потока : 105 Мбайт (4%)
Заголовок : original
Язык : English
ServiceKind/String : Complete Main
Default : Нет
Forced : Нет

Текст
Идентификатор : 4
Формат : UTF-8
Идентификатор кодека : S_TEXT/UTF8
Идентификатор кодека/Информация : UTF-8 Plain Text
Продолжительность : 1 ч. 12 м.
Битрейт : 51 бит/сек
ElementCount : 843
Размер потока : 27,4 Кбайт (0%)
Заголовок : английские
Язык : English
Default : Нет
Forced : Нет

Меню
00:00:00.000 : en:Chapter 1
00:09:23.313 : en:Chapter 2
00:19:07.355 : en:Chapter 3
00:24:57.705 : en:Chapter 4
00:32:10.762 : en:Chapter 5
00:41:33.032 : en:Chapter 6
00:49:19.456 : en:Chapter 7
00:54:10.080 : en:Chapter 8
01:03:55.123 : en:Chapter 9
01:11:27.366 : en:Chapter 10
piratbit.pw



Скачать Раскрашенная долина через торрент https://a.radikal.ru/a02/1907/b7/8548ead9ba73.jpg Скачать фильм Раскрашенная долина через торрент бесплантно в хорошем качестве О фильме: Пересекая Аризонскую равнину с востока на запад, два давних друга Бил Кэш и Джеф Кэмерон находят оставленный фургон переселенцев ... 5 10 1
Info! Золотая раздача, скачанное не засчитывается.
Торрент: Зарегистрирован [2019-07-16 06:08] · скачан: 6 раз
Статус: √ проверено
Размер: 2.45 GB
Как cкачать? Как скачать Раскрашенная долина через торрент | qTorrent

% Раздел Тема Автор DL S | L
Классика зарубежного кино [ 7.18 GB ] Раскрашенная долина / The Painted Desert [1931 BDRip 1080p by msltel] DVO msltel Скачать
1 | 0

28-11-2019 20:33  

Отключить всю рекламу на сайте

    Дорогой пользователь! Огромная просьба, поблагодарите релизера, оцените раздачу и оставьте свои комментарий, если Вы скачали Раскрашенная долина через торрент бесплатно! Внесите свою лепту в развитие PiratBit!
    Комментировать посты могут только пользователи прошедшие не сложную регистрацию
    Показать сообщения:    

    Раскрашенная долина через торрент
    Скачать бесплатно Раскрашенная долина
    Раскрашенная долина скачать торрент
    Раскрашенная долина смотреть онлайн
    Cкачать фильм Раскрашенная долина бесплатно
    Раскрашенная долина скачать торрент в хорошем качестве
    Раскрашенная долина смотреть онлайн бесплатно в хорошем качестве


    Вы не можете начинать темы
    Вы не можете отвечать на сообщения
    Вы не можете редактировать свои сообщения
    Вы не можете удалять свои сообщения
    Вы не можете голосовать в опросах
    Вы не можете прикреплять файлы к сообщениям
    Вы можете скачивать файлы