Ссылка на приватное зеркало нашего сайта всего за 1$. Внимание количество ограничено!!!

2 сезон

iTunes

iTunes

1

iTunes

iTunes

iTunes

WEBRip

iTunes

30
pack

Вам бонус

ВАЖНО

!!Акция!!

Alien_RageХит недели

RePack

Horizon Zero Dawn

ИГРА 18+

pack

RePack

jed

!!Акция!!

Alien_Rage

RePack

fifa19

RePack

Assassins Creed: Odyssey

RePack

NEED FOR SPEED™ PAYBACK

4 сезон

9 сезон

Бесстыжие 9 сезон

Все сериалы

все сериалы на PB.wtf

RePack

FAR CRY 5
  

Про уродов и людей (Алексей Балабанов) [1998, Драма, WEB-DL 720p от KORSAR] piratbit.pw

Про уродов и людей через торрент piratbit.pw

Размер: 5.34 GB | Добавлен: 1 год 2 мес. назад | Торрент скачан:55 раз
Скачать  

15-07-2019 13:49 Про уродов и людей Скачать торрент  

Про уродов и людей

Страна: Россия
Жанр: драма
Год выпуска: 1998
Продолжительность: 01:28:58

Режиссёр: Алексей Балабанов

В ролях: Сергей Маковецкий, Виктор Сухоруков, Анжелика Неволина, Динара Друкарова, Алексей Дё, Чингиз Цыдендамбаев, Вадим Прохоров, Александр Мезенцев, Игорь Шибанов, Дарья Лесникова, Илья Шакунов, Юрий Гальцев

Описание: Начало двадцатого века. Две благополучные с виду семьи. И загадочный Иоган, владелец фотостудии, в подвальном помещении которой создан некий фотографический театр Маркиза де Сада. Где снимаются фотографические открытки с униженной наготой человеческого тела, вызывающие похоть и злорадствующее торжество власти. Взгляд фотографа, умеющий увидеть в девочке ангельские кудри и милую улыбку, и тот же взгляд, разлагающий тело, взгляд порнографа. Раз за разом Иоганн разрушает благополучие семей и превращает обычных людей в уродов, охваченных ароматом порока…

Качество: WEB-DL 720p
Контейнер: MKV

Видео: MPEG-4 AVC, 1280x720, 25.000 fps, 7715 kbps
Аудио 1: Original DVD (Rus) / AC3 / 6 ch / 448 kbps / 48 kHz
Аудио 2: Original DVD (Rus) / AC3 / 2 ch / 256 kbps / 48 kHz
Субтитры: Русские, английские

  • x264 [info]: frame I:716 Avg QP:17.40 size:204280
  • x264 [info]: frame P:27478 Avg QP:19.01 size: 89677
  • x264 [info]: frame B:105269 Avg QP:21.13 size: 25176
  • x264 [info]: consecutive B-frames: 1.3% 2.3% 6.3% 18.2% 20.2% 37.3% 6.5% 2.2% 2.9% 0.7% 0.5% 0.7% 0.9%
Общее
Уникальный идентификатор : 191891748184888402581934670175580739651 (0x905D01A2D757534881E7D9434AD85843)
Полное имя : D:\Про уродов и людей_1998-WEBRip 720p_KORSAR.mkv
Формат : Matroska
Версия формата : Version 2
Размер файла : 5,34 Гбайт
Продолжительность : 1 ч. 28 м.
Общий поток : 8590 Кбит/сек
Название фильма : Про уродов и людей_1998-WEBRip 720p_KORSAR
Дата кодирования : UTC 2019-05-18 13:30:14
Программа кодирования : mkvmerge v5.8.0 ('No Sleep / Pillow') built on Sep 2 2012 15:37:04
Библиотека кодирования : libebml v1.2.3 + libmatroska v1.3.0

Видео
Идентификатор : 1
Формат : AVC
Формат/Информация : Advanced Video Codec
Профиль формата : High@L4.1
Настройки формата : CABAC / 9 Ref Frames
Параметр CABAC формата : Да
Параметр RefFrames формата : 9 кадров
Идентификатор кодека : V_MPEG4/ISO/AVC
Продолжительность : 1 ч. 28 м.
Битрейт : 7715 Кбит/сек
Ширина : 1280 пикселей
Высота : 720 пикселей
Соотношение сторон : 16:9
Режим частоты кадров : Постоянный
Частота кадров : 25,000 кадров/сек
Цветовое пространство : YUV
Субдискретизация насыщенности : 4:2:0
Битовая глубина : 8 бит
Тип развёртки : Прогрессивная
Бит/(Пиксели*Кадры) : 0.335
Размер потока : 4,79 Гбайт (90%)
Библиотека кодирования : x264 core 152 r2851kMod ba24899
Настройки программы : cabac=1 / ref=9 / deblock=1:-2:-2 / analyse=0x3:0x113 / me=umh / subme=10 / psy=1 / fade_compensate=0.00 / psy_rd=1.05:0.10 / mixed_ref=1 / me_range=40 / chroma_me=1 / trellis=2 / 8x8dct=1 / cqm=0 / deadzone=21,11 / fast_pskip=1 / chroma_qp_offset=-3 / threads=12 / lookahead_threads=3 / sliced_threads=0 / nr=0 / decimate=1 / interlaced=0 / bluray_compat=0 / constrained_intra=0 / bframes=12 / b_pyramid=2 / b_adapt=2 / b_bias=0 / direct=1 / weightb=1 / open_gop=0 / weightp=2 / keyint=250 / keyint_min=25 / scenecut=40 / intra_refresh=0 / rc=crf / mbtree=0 / crf=17.7000 / qcomp=0.63 / qpmin=0 / qpmax=30 / qpstep=4 / ip_ratio=1.40 / pb_ratio=1.30 / aq=1:0.90
Язык : English
Default : Да
Forced : Нет
Цветовой диапазон : Limited
Основные цвета : BT.709
Характеристики трансфера : BT.709
Коэффициенты матрицы : BT.709

Аудио #1
Идентификатор : 2
Формат : AC-3
Формат/Информация : Audio Coding 3
Коммерческое название : Dolby Digital
Идентификатор кодека : A_AC3
Продолжительность : 1 ч. 28 м.
Вид битрейта : Постоянный
Битрейт : 448 Кбит/сек
Каналы : 6 каналов
ChannelLayout : L R C LFE Ls Rs
Частота : 48,0 КГц
Частота кадров : 31,250 кадров/сек (1536 SPF)
Битовая глубина : 16 бит
Метод сжатия : С потерями
Размер потока : 285 Мбайт (5%)
Язык : Russian
ServiceKind/String : Complete Main
Default : Да
Forced : Нет

Аудио #2
Идентификатор : 3
Формат : AC-3
Формат/Информация : Audio Coding 3
Коммерческое название : Dolby Digital
Идентификатор кодека : A_AC3
Продолжительность : 1 ч. 28 м.
Вид битрейта : Постоянный
Битрейт : 256 Кбит/сек
Каналы : 2 канала
ChannelLayout : L R
Частота : 48,0 КГц
Частота кадров : 31,250 кадров/сек (1536 SPF)
Битовая глубина : 16 бит
Метод сжатия : С потерями
Размер потока : 163 Мбайт (3%)
Язык : Russian
ServiceKind/String : Complete Main
Default : Нет
Forced : Нет

Текст #1
Идентификатор : 4
Формат : UTF-8
Идентификатор кодека : S_TEXT/UTF8
Идентификатор кодека/Информация : UTF-8 Plain Text
Язык : Russian
Default : Нет
Forced : Нет

Текст #2
Идентификатор : 5
Формат : UTF-8
Идентификатор кодека : S_TEXT/UTF8
Идентификатор кодека/Информация : UTF-8 Plain Text
Язык : English
Default : Нет
Forced : Нет

Меню
00:00:00.000 : en:Chapter 1
00:06:51.000 : en:Chapter 2
00:14:00.400 : en:Chapter 3
00:21:16.520 : en:Chapter 4
00:27:15.640 : en:Chapter 5
00:35:28.240 : en:Chapter 6
00:42:14.360 : en:Chapter 7
00:51:10.800 : en:Chapter 8
00:57:57.200 : en:Chapter 9
01:04:30.200 : en:Chapter 10
01:12:11.280 : en:Chapter 11
01:19:09.920 : en:Chapter 12
piratbit.pw



Скачать Про уродов и людей через торрент https://c.radikal.ru/c31/1907/62/101470da9d2d.png Скачать фильм Про уродов и людей через торрент бесплантно в хорошем качестве Описание: Начало двадцатого века. Две благополучные с виду семьи. И загадочный Иоган, владелец фотостудии, в подвальном помещении которой ... 10 10 3
Торрент: Зарегистрирован [2019-07-15 13:49] · скачан: 55 раз
Статус: √ проверено
Размер: 5.34 GB
Как cкачать? Как скачать Про уродов и людей через торрент | qTorrent

28-11-2019 20:33  

Отключить всю рекламу на сайте

    Дорогой пользователь! Огромная просьба, поблагодарите релизера, оцените раздачу и оставьте свои комментарий, если Вы скачали Про уродов и людей через торрент бесплатно! Внесите свою лепту в развитие PiratBit!
    Комментировать посты могут только пользователи прошедшие не сложную регистрацию
    Показать сообщения:    

    Про уродов и людей через торрент
    Скачать бесплатно Про уродов и людей
    Про уродов и людей скачать торрент
    Про уродов и людей смотреть онлайн
    Cкачать фильм Про уродов и людей бесплатно
    Про уродов и людей скачать торрент в хорошем качестве
    Про уродов и людей смотреть онлайн бесплатно в хорошем качестве


    Вы не можете начинать темы
    Вы не можете отвечать на сообщения
    Вы не можете редактировать свои сообщения
    Вы не можете удалять свои сообщения
    Вы не можете голосовать в опросах
    Вы не можете прикреплять файлы к сообщениям
    Вы можете скачивать файлы