Мега распродажа FORZA HORIZON 4 ULTIMATE+ВСЕ DLC+ОНЛАЙН всего за 499р. 349 руб. (супер цена). Внимание количество ограничено!!!

iTunes

1+1

iTunes

мы

iTunes

1

1 сезон

Чернобыль

1 сезон

Ральф против интернета

Лицензия

ПШазам

8 сезон

Игра престолов

Лицензия

30
pack

ВАЖНО

!!Акция!!

Alien_RageХит недели

RePack

Resident Evil 21

ИГРА 18+

pack

RePack

Metro:Exodus

!!Акция!!

Alien_Rage

RePack

fifa19

RePack

Assassins Creed: Odyssey

RePack

NEED FOR SPEED™ PAYBACK

3 сезон

9 сезон

Бесстыжие 9 сезон

Все сериалы

все сериалы на PB.wtf

RePack

FAR CRY 5
Ребята, катастрофически не хватает 2730р. для оплаты серверов за ИЮНЬ (всвязи с блокировками трафик упал в 3 раза), 1-2р., выручайте.
  

Чёрное лето / Black Summer / Сезон: 1 / Серии: 1-8 из 8 (Тим Кокс, Джон Хайамс) [2019, ужасы, боевик, триллер, драма, WEB-DL 1080p] MVO [SDI Media] piratbit.pw

Чёрное лето через торрент piratbit.pw

Размер: 12.13 GB | Добавлен: 2 д. 21 ч. назад | Торрент скачан:12 раз
Скачать  

14-07-2019 09:33 Чёрное лето Скачать торрент  

Чёрное лето / Black Summer

Год выпуска: 2019
Страна: Канада, США
Жанр: ужасы, боевик, триллер, драма
Продолжительность: ~ 00:44:00
Перевод: Профессиональный (многоголосый закадровый) | SDI Media
Субтитры: Русские (Forced, Full), английские (SDH)

Режиссёр: Тим Кокс, Джон Хайамс

В ролях: Саль Велес мл., Aidan Fink, Кэш Хилл, Michael Aucoin, Джоэль Гань, Дэвид Нэйсом, Джоэль Джекшоу, Brianna Johnston, Бад Класки, Braden Overwater

Описание: Когда мать рассталась с дочерью, она отправляется в мучительное путешествие, не останавливаясь ни перед чем, чтобы найти её. Привлекая небольшую группу американских беженцев, она должна смело вступать в новый враждебный мир и принимать жестокие решения в самое смертоносное лето зомби-апокалипсиса, прозванном «Чёрное лето».




Качество: WEB-DL 1080p
Формат: MKV

Видео: AVC, ~ 5500 kbps, 1920x1080 (16:9), 23.976 fps
Аудио 1: AC3, 48,0 КГц, 6 ch, 640 kbps - Rus
Аудио 2: E-AC3 + Atmos, 48,0 КГц, 6 ch, 768 kbps - Eng


Спасибо:
01. Human Flow
02. Drive
03. Summer School
04. Alone
05. Diner
06. Heist
07. The Tunnel
08. The Stadium
Полное имя                               : D:\RELEASE\Black.Summer.S01.1080p.WEB-DL.Rus.Eng.EniaHD\Black.Summer.S01E01.Human.Flow.1080p.WEB-DL.Rus.Eng.EniaHD.mkv
Формат                                   : Matroska
Версия формата                           : Version 4
Размер файла                             : 2,15 Гбайт
Продолжительность                        : 44 м. 41 с.
Режим общего битрейта                    : Переменный
Общий поток                              : 6899 Кбит/сек
Дата кодирования                         : UTC 2019-04-11 13:28:56
Программа кодирования                    : mkvmerge v32.0.0 ('Astral Progressions') 32-bit
Библиотека кодирования                   : libebml v1.3.7 + libmatroska v1.5.0
Обложка                                  : Yes
Attachments                              : cover.black.summer.jpg

Видео
Идентификатор                            : 1
Формат                                   : AVC
Формат/Информация                        : Advanced Video Codec
Профиль формата                          : Main@L4
Настройки формата                        : CABAC / 3 Ref Frames
Параметр CABAC формата                   : Да
Параметр RefFrames формата               : 3 кадра
Идентификатор кодека                     : V_MPEG4/ISO/AVC
Продолжительность                        : 44 м. 41 с.
Вид битрейта                             : Переменный
Битрейт                                  : 5488 Кбит/сек
Номинальный битрейт                      : 5800 Кбит/сек
Максимальный битрейт                     : 8700 Кбит/сек
Ширина                                   : 1920 пикселей
Высота                                   : 1080 пикселей
Соотношение сторон                       : 16:9
Режим частоты кадров                     : Постоянный
Частота кадров                           : 23,976 (24000/1001) кадра/сек
Цветовое пространство                    : YUV
Субдискретизация насыщенности            : 4:2:0
Битовая глубина                          : 8 бит
Тип развёртки                            : Прогрессивная
Бит/(Пиксели*Кадры)                      : 0.110
Размер потока                            : 1,71 Гбайт (80%)
Библиотека кодирования                   : x264 core 148 r2715 7e75228
Настройки программы                      : cabac=1 / ref=3 / deblock=1:0:0 / analyse=0x1:0x111 / me=umh / subme=10 / psy=1 / psy_rd=1.00:0.00 / mixed_ref=1 / me_range=24 / chroma_me=1 / trellis=2 / 8x8dct=0 / cqm=0 / deadzone=21,11 / fast_pskip=1 / chroma_qp_offset=-2 / threads=8 / lookahead_threads=1 / sliced_threads=0 / nr=0 / decimate=1 / interlaced=0 / bluray_compat=0 / stitchable=1 / constrained_intra=0 / bframes=2 / b_pyramid=0 / b_adapt=2 / b_bias=0 / direct=3 / weightb=1 / open_gop=0 / weightp=2 / keyint=48 / keyint_min=25 / scenecut=0 / intra_refresh=0 / rc_lookahead=48 / rc=2pass / mbtree=1 / bitrate=5800 / ratetol=1.0 / qcomp=0.50 / qpmin=6 / qpmax=51 / qpstep=4 / cplxblur=20.0 / qblur=0.5 / vbv_maxrate=8700 / vbv_bufsize=11600 / nal_hrd=vbr / filler=0 / ip_ratio=1.40 / aq=1:1.00
Язык                                     : English
Default                                  : Да
Forced                                   : Нет

Аудио #1
Идентификатор                            : 2
Формат                                   : AC-3
Формат/Информация                        : Audio Coding 3
Коммерческое название                    : Dolby Digital
Идентификатор кодека                     : A_AC3
Продолжительность                        : 44 м. 41 с.
Вид битрейта                             : Постоянный
Битрейт                                  : 640 Кбит/сек
Каналы                                   : 6 каналов
Channel layout                           : L R C LFE Ls Rs
Частота                                  : 48,0 КГц
Частота кадров                           : 31,250 кадров/сек (1536 SPF)
Битовая глубина                          : 16 бит
Метод сжатия                             : С потерями
Размер потока                            : 205 Мбайт (9%)
Заголовок                                : AC3 5.1 @ 640 kbps - MVO
Язык                                     : Russian
ServiceKind/String                       : Complete Main
Default                                  : Да
Forced                                   : Нет

Аудио #2
Идентификатор                            : 3
Формат                                   : E-AC-3 JOC
Формат/Информация                        : Enhanced AC-3 with Joint Object Coding
Коммерческое название                    : Dolby Digital Plus with Dolby Atmos
Идентификатор кодека                     : A_EAC3
Продолжительность                        : 44 м. 41 с.
Вид битрейта                             : Постоянный
Битрейт                                  : 768 Кбит/сек
Каналы                                   : 6 каналов
Channel layout                           : L R C LFE Ls Rs
Частота                                  : 48,0 КГц
Частота кадров                           : 31,250 кадров/сек (1536 SPF)
Метод сжатия                             : С потерями
Размер потока                            : 245 Мбайт (11%)
Заголовок                                : E-AC3 + Atmos @ 768 kbps - Original
Язык                                     : English
ServiceKind/String                       : Complete Main
Default                                  : Нет
Forced                                   : Нет
Complexity index                         : 16
Number of dynamic objects                : 15
Bed channel count                        : 1 канал
Bed channel configuration                : LFE

Текст #1
Идентификатор                            : 4
Формат                                   : UTF-8
Идентификатор кодека                     : S_TEXT/UTF8
Идентификатор кодека/Информация          : UTF-8 Plain Text
Продолжительность                        : 42 м. 35 с.
Битрейт                                  : 0 бит/сек
ElementCount                             : 10
Размер потока                            : 208 байт (0%)
Заголовок                                : Forced
Язык                                     : Russian
Default                                  : Да
Forced                                   : Да

Текст #2
Идентификатор                            : 5
Формат                                   : UTF-8
Идентификатор кодека                     : S_TEXT/UTF8
Идентификатор кодека/Информация          : UTF-8 Plain Text
Продолжительность                        : 42 м. 33 с.
Битрейт                                  : 46 бит/сек
ElementCount                             : 362
Размер потока                            : 14,5 Кбайт (0%)
Заголовок                                : Full
Язык                                     : Russian
Default                                  : Нет
Forced                                   : Нет

Текст #3
Идентификатор                            : 6
Формат                                   : UTF-8
Идентификатор кодека                     : S_TEXT/UTF8
Идентификатор кодека/Информация          : UTF-8 Plain Text
Продолжительность                        : 40 м. 41 с.
Битрейт                                  : 40 бит/сек
ElementCount                             : 506
Размер потока                            : 12,0 Кбайт (0%)
Заголовок                                : Full SDH
Язык                                     : English
Default                                  : Нет
Forced                                   : Нет
piratbit.pw



Скачать Чёрное лето через торрент https://i109.fastpic.ru/big/2019/0413/c0/4862e05946e8eaf9ef3b847ebba686c0.png Скачать фильм Чёрное лето через торрент бесплантно в хорошем качестве Описание: Когда мать рассталась с дочерью, она отправляется в мучительное путешествие, не останавливаясь ни перед чем, чтобы найти её. ... 10 10 2
Торрент: Зарегистрирован [2019-07-14 09:33] · скачан: 12 раз
Статус: √ проверено
Размер: 12.13 GB
Как cкачать? Как скачать Чёрное лето через торрент | qTorrent

% Раздел Тема Автор DL S | L
Зарубежные сериалы [ 11.62 GB ] Чёрное лето / Black Summer / Сезон: 1 / Серии: 1-8 из 8 [2019 WEBRip 1080p] MVO [TVShows] bober100 Скачать
2 | 1
Зарубежные сериалы [ 10.86 GB ] Чёрное лето / Black Summer / Сезон: 1 / Серии: 1-8 из 8 [2019 WEB-DL 1080p] MVO [Netflix] bober100 Скачать
3 | 0


>> Регистрируемся здесь <<






Отзывы и комментарии о схеме читаем и пишем здесь: ---> Отзывы и комментарии о схеме

Новые благодарочки в телеграм довольных пользователей:
скриншот   скриншот   скриншот   скриншот   скриншот
    Дорогой пользователь! Огромная просьба, поблагодарите релизера, оцените раздачу и оставьте свои комментарий, если Вы скачали Чёрное лето через торрент бесплатно! Внесите свою лепту в развитие PiratBit!
    Комментировать посты могут только пользователи прошедшие не сложную регистрацию
    Показать сообщения:    

    Чёрное лето через торрент
    Скачать бесплатно Чёрное лето
    Чёрное лето скачать торрент
    Чёрное лето смотреть онлайн
    Cкачать фильм Чёрное лето бесплатно
    Чёрное лето скачать торрент в хорошем качестве
    Чёрное лето смотреть онлайн бесплатно в хорошем качестве


    Вы не можете начинать темы
    Вы не можете отвечать на сообщения
    Вы не можете редактировать свои сообщения
    Вы не можете удалять свои сообщения
    Вы не можете голосовать в опросах
    Вы не можете прикреплять файлы к сообщениям
    Вы можете скачивать файлы