MEGA SALE -75% Borderlands 3 Super Deluxe всего за 550р. 180 руб. (супер цена). Внимание количество ограничено!!!

iTunes

1+1

iTunes

мы

iTunes

1

iTunes

Чернобыль

iTunes

Ральф против интернета

Лицензия

ПШазам

Лицензия

Игра престолов

Лицензия

30
pack

ВАЖНО

!!Акция!!

Alien_RageХит недели

RePack

Resident Evil 21

ИГРА 18+

pack

RePack

Metro:Exodus

!!Акция!!

Alien_Rage

RePack

fifa19

RePack

Assassins Creed: Odyssey

RePack

NEED FOR SPEED™ PAYBACK

3 сезон

9 сезон

Бесстыжие 9 сезон

Все сериалы

все сериалы на PB.wtf

RePack

FAR CRY 5
Ребята, катастрофически не хватает 1900р. для оплаты серверов за АВГУСТ (всвязи с блокировками трафик упал в 3 раза), 1-2р., выручайте.
  

Третья ракета (Ричард Викторов) [1963, СССР, драма, военный, DVDRip-AVC от AVP Studio] piratbit.pw

Третья ракета через торрент piratbit.pw

Раздают: 3 [ 0 KB/s ]
Размер: 840 MB | Добавлен: 3 мес. назад | Торрент скачан:15 раз
Скачать  

14-07-2019 08:30 Третья ракета Скачать торрент  

Третья ракета
Страна: СССР
Производство: Беларусьфильм

Жанр: драма, военный
Год выпуска: 1963
Продолжительность: 01:16:15

Перевод: Не требуется
Cубтитры: нет
Оригинальная аудиодорожка: русский

Режиссер: Ричард Викторов

В ролях:
Станислав Любшин, Георгий Жжёнов, Спартак Федотов, Надежда Семенцова, Игорь Комаров, Юрий Дубровин (II), Леонид Давыдов-Субоч...
Об актёрах подробней

Описание:
Судьба свела на передовой, в одном окопе, очень разных людей, которым вместе предстояло выдержать первую танковую атаку немцев…

Источник: DVD5 R5
Качество видео: DVDRip-AVC
Формат видео: MKV

Видео: 696->761х572 (4:3), 25,000 fps, H264 ~ 1346 kbps avg, 0.135 bit/pixel
Аудио: 48 kHz, Dolby Digital AC3 2.0, 192 kbps

Раздача от:
Общее
Полное имя : Tretya.raketa.1963.DVDRip-AVC_[New-team]_by_AVP_Studio.mkv
Формат : Matroska
Версия формата : Version 2
Размер файла : 840 Мбайт
Продолжительность : 1 ч. 16 м.
Общий поток : 1540 Кбит/сек
Дата кодирования : UTC 2019-07-11 15:09:14
Программа кодирования : mkvmerge v6.1.0 ('Old Devil') built on Mar 4 2013 09:10:42
Библиотека кодирования : libebml v1.3.0 + libmatroska v1.4.0

Видео
Идентификатор : 1
Формат : AVC
Формат/Информация : Advanced Video Codec
Профиль формата : High@L4.1
Настройки формата : CABAC / 10 Ref Frames
Параметр CABAC формата : Да
Параметр RefFrames формата : 10 кадров
Идентификатор кодека : V_MPEG4/ISO/AVC
Продолжительность : 1 ч. 16 м.
Битрейт : 1346 Кбит/сек
Ширина : 696 пикселей
Высота : 572 пикселя
Соотношение сторон : 4:3
Режим частоты кадров : Постоянный
Частота кадров : 25,000 кадров/сек
Цветовое пространство : YUV
Субдискретизация насыщенности : 4:2:0
Битовая глубина : 8 бит
Тип развёртки : Прогрессивная
Бит/(Пиксели*Кадры) : 0.135
Размер потока : 718 Мбайт (86%)
Библиотека кодирования : x264 core 157 r2932 303c484
Настройки программы : cabac=1 / ref=10 / deblock=1:-2:-1 / analyse=0x3:0x113 / me=umh / subme=10 / psy=1 / psy_rd=1.00:0.00 / mixed_ref=1 / me_range=32 / chroma_me=1 / trellis=2 / 8x8dct=1 / cqm=0 / deadzone=21,11 / fast_pskip=1 / chroma_qp_offset=-2 / threads=6 / lookahead_threads=1 / sliced_threads=0 / nr=0 / decimate=0 / interlaced=0 / bluray_compat=0 / constrained_intra=0 / bframes=8 / b_pyramid=2 / b_adapt=2 / b_bias=0 / direct=3 / weightb=1 / open_gop=0 / weightp=2 / keyint=250 / keyint_min=25 / scenecut=40 / intra_refresh=0 / rc=2pass / mbtree=0 / bitrate=1346 / ratetol=1.0 / qcomp=0.60 / qpmin=0 / qpmax=69 / qpstep=4 / cplxblur=20.0 / qblur=0.5 / ip_ratio=1.40 / pb_ratio=1.30 / aq=1:1.00
Default : Да
Forced : Нет

Аудио
Идентификатор : 2
Формат : AC-3
Формат/Информация : Audio Coding 3
Коммерческое название : Dolby Digital
Идентификатор кодека : A_AC3
Продолжительность : 1 ч. 16 м.
Вид битрейта : Постоянный
Битрейт : 192 Кбит/сек
Каналы : 2 канала
ChannelLayout : L R
Частота : 48,0 КГц
Частота кадров : 31,250 кадров/сек (1536 SPF)
Битовая глубина : 16 бит
Метод сжатия : С потерями
Размер потока : 105 Мбайт (12%)
Default : Да
Forced : Нет
piratbit.pw



Скачать Третья ракета через торрент http://picplus.ru/img/1907/14/1e0f0121.png Скачать фильм Третья ракета через торрент бесплантно в хорошем качестве Описание:Судьба свела на передовой, в одном окопе, очень разных людей, которым вместе предстояло выдержать первую танковую атаку немцев… ... 5 10 1
Торрент: Зарегистрирован [2019-07-14 08:30] · скачан: 15 раз
Статус: √ проверено
Размер: 840 MB
Как cкачать? Как скачать Третья ракета через торрент | qTorrent

% Раздел Тема Автор DL S | L
Кино СССР [ 742 MB ] Третья ракета [1963 СССР военный DVDRip от AVP Studio] AVP Studio Скачать
4 | 0
Кино СССР [ 1.33 GB ] Третья ракета [1963 военный DVDRip] шурка Скачать
1 | 0


>> Регистрируемся здесь <<






Отзывы и комментарии о схеме читаем и пишем здесь: ---> Отзывы и комментарии о схеме

Новые благодарочки в телеграм довольных пользователей:
скриншот   скриншот   скриншот   скриншот   скриншот
    Дорогой пользователь! Огромная просьба, поблагодарите релизера, оцените раздачу и оставьте свои комментарий, если Вы скачали Третья ракета через торрент бесплатно! Внесите свою лепту в развитие PiratBit!
    Комментировать посты могут только пользователи прошедшие не сложную регистрацию
    Показать сообщения:    

    Третья ракета через торрент
    Скачать бесплатно Третья ракета
    Третья ракета скачать торрент
    Третья ракета смотреть онлайн
    Cкачать фильм Третья ракета бесплатно
    Третья ракета скачать торрент в хорошем качестве
    Третья ракета смотреть онлайн бесплатно в хорошем качестве


    Вы не можете начинать темы
    Вы не можете отвечать на сообщения
    Вы не можете редактировать свои сообщения
    Вы не можете удалять свои сообщения
    Вы не можете голосовать в опросах
    Вы не можете прикреплять файлы к сообщениям
    Вы можете скачивать файлы