MEGA SALE -75% Borderlands 3 Super Deluxe всего за 550р. 180 руб. (супер цена). Внимание количество ограничено!!!

iTunes

1+1

iTunes

мы

iTunes

1

iTunes

Чернобыль

iTunes

Ральф против интернета

Лицензия

ПШазам

Лицензия

Игра престолов

Лицензия

30
pack

ВАЖНО

!!Акция!!

Alien_RageХит недели

RePack

Resident Evil 21

ИГРА 18+

pack

RePack

Metro:Exodus

!!Акция!!

Alien_Rage

RePack

fifa19

RePack

Assassins Creed: Odyssey

RePack

NEED FOR SPEED™ PAYBACK

3 сезон

9 сезон

Бесстыжие 9 сезон

Все сериалы

все сериалы на PB.wtf

RePack

FAR CRY 5
Ребята, катастрофически не хватает 1900р. для оплаты серверов за АВГУСТ (всвязи с блокировками трафик упал в 3 раза), 1-2р., выручайте.
  

Ночные ходы / Night Moves (Артур Пенн / Arthur Penn) [1975,Триллер, криминал, детектив, фильм-нуар, BDRip 720р от KORSAR] [AVO (А. Медведев)] piratbit.pw

Ночные ходы через торрент piratbit.pw

Размер: 5.33 GB | Добавлен: 3 мес. назад | Торрент скачан:3 раза
Скачать  

14-07-2019 08:24 Ночные ходы Скачать торрент  

Ночные ходы / Night Moves Страна: США
Жанр: Триллер, Криминал, Детектив, Фильм-Нуар
Год выхода: 1975
Продолжительность: 01:39:42

Режиссер: Артур Пенн / Arthur Penn

В ролях: Джин Хэкмен, Дженнифер Уоррен, Эд Биннс, Харрис Юлин, Кеннет Марс, Джанет Уорд, Джеймс Вудс, Энтони Костильо, Джон Кроуфорд, Мелани Гриффит

О фильме: Психологический триллер рассказывает о том, как Лос-Анджелесский детектив Гарри Мосби забывает на время о своих брачных бедах для того, чтобы найти сбежавшую из дома нимфетку. Он едет за ней в Калифорнию, где разворачивается сложное действие, приводящее к ошеломляющему финалу.

Релиз от:

Продолжительность: 01:39:43
Перевод: Авторский
Субтитры: Английские, немецкие, испанские, финские
Навигация по главам: Есть

Качество: BDRip 720p
Формат: MKV

Видео: MPEG-4 AVC, 7228 Кбит/сек, 1280x720, 23,976 кадра/сек
Аудио #1: AC3, 1 ch, 192 Кбит/сек | Русский, авторский (одноголосый закадровый) Алексей Медведев
Аудио #2: AC3, 2 ch, 224 Кбит/сек | Английский, оригинал
x264 [info]: frame I:977 Avg QP:16.54 size: 172266
x264 [info]: frame P:26958 Avg QP:19.46 size: 65670
x264 [info]: frame B:115512 Avg QP:20.99 size: 30224
----------------------------------------------------
Общее
Уникальный идентификатор : 215449163877082732836144751172776695579 (0xA215FFE71F7AF018821F7AC9083D171B)
Полное имя : Ночные.ходы.1975.BDRip.720p.mkv
Формат : Matroska
Версия формата : Version 2
Размер файла : 5,33 Гбайт
Продолжительность : 1 ч. 39 м.
Общий поток : 7646 Кбит/сек
Дата кодирования : UTC 2017-09-07 12:55:47
Программа кодирования : mkvmerge v5.8.0 ('No Sleep / Pillow') built on Sep 2 2012 15:37:04
Библиотека кодирования : libebml v1.2.3 + libmatroska v1.3.0

Видео
Идентификатор : 1
Формат : AVC
Формат/Информация : Advanced Video Codec
Профиль формата : High@L4.1
Параметр CABAC формата : Да
Параметр ReFrames формата : 9 кадров
Идентификатор кодека : V_MPEG4/ISO/AVC
Продолжительность : 1 ч. 39 м.
Битрейт : 7228 Кбит/сек
Ширина : 1280 пикселей
Высота : 720 пикселей
Соотношение сторон : 16:9
Режим частоты кадров : Постоянный
Частота кадров : 23,976 (24000/1001) кадра/сек
Цветовое пространство : YUV
Субдискретизация насыщенности : 4:2:0
Битовая глубина : 8 бит
Тип развёртки : Прогрессивная
Бит/(Пиксели*Кадры) : 0.327
Размер потока : 4,93 Гбайт (93%)
Заголовок : RIP | MZMA
Библиотека кодирования : x264 core 148 r2638 7599210
Настройки программы : cabac=1 / ref=9 / deblock=1:-2:-1 / analyse=0x3:0x113 / me=umh / subme=11 / psy=1 / psy_rd=1.00:0.00 / mixed_ref=1 / me_range=48 / chroma_me=1 / trellis=2 / 8x8dct=1 / cqm=0 / deadzone=21,11 / fast_pskip=0 / chroma_qp_offset=-2 / threads=6 / lookahead_threads=1 / sliced_threads=0 / nr=0 / decimate=0 / interlaced=0 / bluray_compat=0 / constrained_intra=0 / bframes=16 / b_pyramid=2 / b_adapt=2 / b_bias=0 / direct=3 / weightb=1 / open_gop=0 / weightp=2 / keyint=250 / keyint_min=23 / scenecut=40 / intra_refresh=0 / rc_lookahead=60 / rc=2pass / mbtree=1 / bitrate=7228 / ratetol=1.0 / qcomp=0.60 / qpmin=0 / qpmax=69 / qpstep=4 / cplxblur=20.0 / qblur=0.5 / vbv_maxrate=50000 / vbv_bufsize=62500 / nal_hrd=none / filler=0 / ip_ratio=1.40 / aq=3:0.80
Язык : English
Default : Да
Forced : Нет
Цветовой диапазон : Limited
Основные цвета : BT.709
Характеристики трансфера : BT.709
Коэффициенты матрицы : BT.709

Аудио #1
Идентификатор : 2
Формат : AC-3
Формат/Информация : Audio Coding 3
Параметр Endianness формата : Big
Идентификатор кодека : A_AC3
Продолжительность : 1 ч. 39 м.
Вид битрейта : Постоянный
Битрейт : 192 Кбит/сек
Каналы : 1 канал
Расположение каналов : Front: C
Частота : 48,0 КГц
Частота кадров : 31,250 кадров/сек (1536 spf)
Битовая глубина : 16 бит
Метод сжатия : С потерями
Размер потока : 137 Мбайт (3%)
Заголовок : AVO | А. Медведев
Язык : Russian
ServiceKind/String : Complete Main
Default : Да
Forced : Нет

Аудио #2
Идентификатор : 3
Формат : AC-3
Формат/Информация : Audio Coding 3
Параметр Endianness формата : Big
Идентификатор кодека : A_AC3
Продолжительность : 1 ч. 39 м.
Вид битрейта : Постоянный
Битрейт : 224 Кбит/сек
Каналы : 2 канала
Расположение каналов : Front: L R
Частота : 48,0 КГц
Частота кадров : 31,250 кадров/сек (1536 spf)
Битовая глубина : 16 бит
Метод сжатия : С потерями
Размер потока : 160 Мбайт (3%)
Заголовок : Original
Язык : English
ServiceKind/String : Complete Main
Default : Нет
Forced : Нет

Текст #1
Идентификатор : 4
Формат : UTF-8
Идентификатор кодека : S_TEXT/UTF8
Идентификатор кодека/Информация : UTF-8 Plain Text
Язык : English
Default : Нет
Forced : Нет

Текст #2
Идентификатор : 5
Формат : UTF-8
Идентификатор кодека : S_TEXT/UTF8
Идентификатор кодека/Информация : UTF-8 Plain Text
Заголовок : SDH
Язык : English
Default : Нет
Forced : Нет

Текст #3
Идентификатор : 6
Формат : UTF-8
Идентификатор кодека : S_TEXT/UTF8
Идентификатор кодека/Информация : UTF-8 Plain Text
Язык : German
Default : Нет
Forced : Нет

Текст #4
Идентификатор : 7
Формат : UTF-8
Идентификатор кодека : S_TEXT/UTF8
Идентификатор кодека/Информация : UTF-8 Plain Text
Язык : Spanish
Default : Нет
Forced : Нет

Текст #5
Идентификатор : 8
Формат : UTF-8
Идентификатор кодека : S_TEXT/UTF8
Идентификатор кодека/Информация : UTF-8 Plain Text
Язык : Finnish
Default : Нет
Forced : Нет

Меню
00:00:00.000 : en:Chapter 01
00:02:46.875 : en:Chapter 02
00:07:05.049 : en:Chapter 03
00:09:12.134 : en:Chapter 04
00:12:27.788 : en:Chapter 05
00:14:29.952 : en:Chapter 06
00:20:21.470 : en:Chapter 07
00:24:51.448 : en:Chapter 08
00:29:18.173 : en:Chapter 09
00:34:29.609 : en:Chapter 10
00:37:53.271 : en:Chapter 11
00:41:06.380 : en:Chapter 12
00:44:41.220 : en:Chapter 13
00:49:10.906 : en:Chapter 14
00:54:13.291 : en:Chapter 15
00:57:22.939 : en:Chapter 16
01:00:57.904 : en:Chapter 17
01:03:10.203 : en:Chapter 18
01:06:18.808 : en:Chapter 19
01:12:08.490 : en:Chapter 20
01:17:39.196 : en:Chapter 21
01:19:42.277 : en:Chapter 22
01:23:26.292 : en:Chapter 23
01:28:45.486 : en:Chapter 24
01:31:14.760 : en:Chapter 25
01:36:23.194 : en:Chapter 26
01:38:22.146 : en:Chapter 27
piratbit.pw



Скачать Ночные ходы через торрент https://c.radikal.ru/c12/1907/d2/eba517e9c33d.png Скачать фильм Ночные ходы через торрент бесплантно в хорошем качестве О фильме: Психологический триллер рассказывает о том, как Лос-Анджелесский детектив Гарри Мосби забывает на время о своих брачных бедах для ... 5 10 1
Info! Золотая раздача, скачанное не засчитывается.
Торрент: Зарегистрирован [2019-07-14 08:24] · скачан: 3 раз
Статус: √ проверено
Размер: 5.33 GB
Как cкачать? Как скачать Ночные ходы через торрент | qTorrent

% Раздел Тема Автор DL S | L
Фильмы с авторской озвучкой [ 1.59 GB ] Ночные ходы / Night Moves [1975 фильм-нуар BDRip] [AVO] killermax2013 Скачать
1 | 0


>> Регистрируемся здесь <<






Отзывы и комментарии о схеме читаем и пишем здесь: ---> Отзывы и комментарии о схеме

Новые благодарочки в телеграм довольных пользователей:
скриншот   скриншот   скриншот   скриншот   скриншот

14-07-2019 08:42 Ночные ходы Скачать торрент  

Топик был перенесен из форума Фильмы [HD 720p, 1080p] (Хороший звук DUB, MVO) в форум Фильмы с авторской озвучкой


bober100piratbit.pw



    Дорогой пользователь! Огромная просьба, поблагодарите релизера, оцените раздачу и оставьте свои комментарий, если Вы скачали Ночные ходы через торрент бесплатно! Внесите свою лепту в развитие PiratBit!
    Комментировать посты могут только пользователи прошедшие не сложную регистрацию
    Показать сообщения:    

    Ночные ходы через торрент
    Скачать бесплатно Ночные ходы
    Ночные ходы скачать торрент
    Ночные ходы смотреть онлайн
    Cкачать фильм Ночные ходы бесплатно
    Ночные ходы скачать торрент в хорошем качестве
    Ночные ходы смотреть онлайн бесплатно в хорошем качестве


    Вы не можете начинать темы
    Вы не можете отвечать на сообщения
    Вы не можете редактировать свои сообщения
    Вы не можете удалять свои сообщения
    Вы не можете голосовать в опросах
    Вы не можете прикреплять файлы к сообщениям
    Вы можете скачивать файлы