Мега распродажа FORZA HORIZON 4 ULTIMATE+ВСЕ DLC+ОНЛАЙН всего за 499р. 349 руб. (супер цена). Внимание количество ограничено!!!

iTunes

1+1

iTunes

мы

iTunes

1

1 сезон

Чернобыль

1 сезон

Ральф против интернета

Лицензия

ПШазам

8 сезон

Игра престолов

Лицензия

30
pack

ВАЖНО

!!Акция!!

Alien_RageХит недели

RePack

Resident Evil 21

ИГРА 18+

pack

RePack

Metro:Exodus

!!Акция!!

Alien_Rage

RePack

fifa19

RePack

Assassins Creed: Odyssey

RePack

NEED FOR SPEED™ PAYBACK

3 сезон

9 сезон

Бесстыжие 9 сезон

Все сериалы

все сериалы на PB.wtf

RePack

FAR CRY 5
Ребята, катастрофически не хватает 2730р. для оплаты серверов за ИЮНЬ (всвязи с блокировками трафик упал в 3 раза), 1-2р., выручайте.
  

Сладкие грезы / Sweet Dreams (Карел Рейш / Karel Reisz) [1985, мюзикл, драма, биография, музыка, WEB-DLRip 720p от KORSAR] [Dub (Мосфильм) + MVO (Нева-1)] piratbit.pw

Сладкие грезы через торрент piratbit.pw

Размер: 5.2 GB | Добавлен: 2 д. 23 ч. назад | Торрент скачан:2 раза
Скачать  

14-07-2019 07:28 Сладкие грезы Скачать торрент  

Сладкие грезы / Sweet Dreams

Страна: США
Студия: Home Box Office (HBO), Silver Screen Partners
Жанр: Мюзикл, драма, биография, музыка
Год выпуска: 1985
Продолжительность: 01:55:12

Перевод: Профессиональный дублированный (Мосфильм)
Перевод 2: Профессиональный многоголосый закадровый (Нева-1)
Субтитры: Английские
Оригинальная аудиодорожка: Английская

Режиссёр: Карел Рейш / Karel Reisz

В ролях: Джессика Лэнг, Эд Харрис, Энн Уэджуорт, Дэвид Кленнон, Джеймс Стейли, Гэри Басараба, Джон Гудман, П.Дж. Соулз, Терри Гарднер, Кэйтлин Келч

Описание: Пэтси Клайн — популярная американская певица 50-х годов, одна из самых знаменитых исполнительниц музыки в стиле «кантри». Действие картины начинается в 1956 году, когда она знакомится со своим будущим мужем Чарли Диком.
Он разводится со своим скучным мужем, собиравшим модели кораблей, и выходит за буйного, непутевого Чарли, познав, что такое настоящая любовь. Чарли, случалось, и бил ее, но скучать с ним не приходилось.

Релиз от:

Качество: WEB-DLRip 720p
Контейнер: MKV

Качество: WEB-DLRip 720p
Видео: MPEG-4 AVC, 5869 Кбит/сек, 1280x720, 23,976 кадра/сек
Аудио #1: AC3, 2 ch, 192 Кбит/сек | Русский, профессиональный (полное дублирование)
Аудио #2: AC3, 2 ch, 192 Кбит/сек | Русский, профессиональный (многоголосый закадровый) Нева 1
Аудио #3: EAC3, 2 ch, 224 Кбит/сек | Английский, оригинал
x264 [info]: frame I:878 Avg QP:14.25 size:101288
x264 [info]: frame P:36291 Avg QP:15.80 size: 54502
x264 [info]: frame B:128299 Avg QP:17.65 size: 23344
-----------------------------------------------------
Общее
Уникальный идентификатор : 248131596888050156316834198134625597327 (0xBAAC68422922438D81E981C81996F78F)
Полное имя : Сладкие.грезы.1985.WEB-DLRip.720p.KORSAR.mkv
Формат : Matroska
Версия формата : Version 2
Размер файла : 5,20 Гбайт
Продолжительность : 1 ч. 55 м.
Общий поток : 6478 Кбит/сек
Дата кодирования : UTC 2018-01-10 10:13:16
Программа кодирования : mkvmerge v5.8.0 ('No Sleep / Pillow') built on Sep 2 2012 15:37:04
Библиотека кодирования : libebml v1.2.3 + libmatroska v1.3.0

Видео
Идентификатор : 1
Формат : AVC
Формат/Информация : Advanced Video Codec
Профиль формата : High@L4.1
Настройки формата : CABAC / 9 Ref Frames
Параметр CABAC формата : Да
Параметр RefFrames формата : 9 кадров
Идентификатор кодека : V_MPEG4/ISO/AVC
Продолжительность : 1 ч. 55 м.
Битрейт : 5869 Кбит/сек
Ширина : 1280 пикселей
Высота : 720 пикселей
Соотношение сторон : 16:9
Режим частоты кадров : Постоянный
Частота кадров : 23,976 (24000/1001) кадра/сек
Цветовое пространство : YUV
Субдискретизация насыщенности : 4:2:0
Битовая глубина : 8 бит
Тип развёртки : Прогрессивная
Бит/(Пиксели*Кадры) : 0.266
Размер потока : 4,61 Гбайт (89%)
Заголовок : RIP | MZMA
Библиотека кодирования : x264 core 152 r2851kMod ba24899
Настройки программы : cabac=1 / ref=9 / deblock=1:-2:-2 / analyse=0x3:0x113 / me=umh / subme=11 / psy=1 / fade_compensate=0.00 / psy_rd=0.90:0.05 / mixed_ref=1 / me_range=48 / chroma_me=1 / trellis=2 / 8x8dct=1 / cqm=0 / deadzone=21,11 / fast_pskip=0 / chroma_qp_offset=-3 / threads=6 / lookahead_threads=1 / sliced_threads=0 / nr=0 / decimate=0 / interlaced=0 / bluray_compat=0 / constrained_intra=0 / bframes=16 / b_pyramid=2 / b_adapt=2 / b_bias=0 / direct=3 / weightb=1 / open_gop=0 / weightp=2 / keyint=240 / keyint_min=23 / scenecut=40 / intra_refresh=0 / rc_lookahead=40 / rc=2pass / mbtree=0 / bitrate=5869 / ratetol=1.0 / qcomp=0.60 / qpmin=0 / qpmax=69 / qpstep=4 / cplxblur=20.0 / qblur=0.5 / vbv_maxrate=50000 / vbv_bufsize=62500 / nal_hrd=none / filler=0 / ip_ratio=1.25 / pb_ratio=1.30 / aq=3:0.80
Язык : English
Default : Да
Forced : Нет
Цветовой диапазон : Limited
Основные цвета : BT.709
Характеристики трансфера : BT.709
Коэффициенты матрицы : BT.709

Аудио #1
Идентификатор : 2
Формат : AC-3
Формат/Информация : Audio Coding 3
Идентификатор кодека : A_AC3
Продолжительность : 1 ч. 55 м.
Вид битрейта : Постоянный
Битрейт : 192 Кбит/сек
Каналы : 2 канала
Расположение каналов : Front: L R
Частота : 48,0 КГц
Частота кадров : 31,250 кадров/сек (1536 SPF)
Битовая глубина : 16 бит
Метод сжатия : С потерями
Размер потока : 158 Мбайт (3%)
Заголовок : DUB
Язык : Russian
ServiceKind/String : Complete Main
Default : Да
Forced : Нет

Аудио #2
Идентификатор : 3
Формат : AC-3
Формат/Информация : Audio Coding 3
Идентификатор кодека : A_AC3
Продолжительность : 1 ч. 55 м.
Вид битрейта : Постоянный
Битрейт : 192 Кбит/сек
Каналы : 2 канала
Расположение каналов : Front: L R
Частота : 48,0 КГц
Частота кадров : 31,250 кадров/сек (1536 SPF)
Битовая глубина : 16 бит
Метод сжатия : С потерями
Размер потока : 158 Мбайт (3%)
Заголовок : MVO | Нева 1
Язык : Russian
ServiceKind/String : Complete Main
Default : Нет
Forced : Нет

Аудио #3
Идентификатор : 4
Формат : E-AC-3
Формат/Информация : Enhanced Audio Coding 3
Идентификатор кодека : A_EAC3
Продолжительность : 1 ч. 55 м.
Вид битрейта : Постоянный
Битрейт : 224 Кбит/сек
Каналы : 2 канала
Расположение каналов : Front: L R
Частота : 48,0 КГц
Частота кадров : 187,500 кадров/сек (256 SPF)
Метод сжатия : С потерями
Размер потока : 184 Мбайт (3%)
Заголовок : Original
Язык : English
ServiceKind/String : Complete Main
Default : Нет
Forced : Нет

Текст
Идентификатор : 5
Формат : UTF-8
Идентификатор кодека : S_TEXT/UTF8
Идентификатор кодека/Информация : UTF-8 Plain Text
Язык : English
Default : Нет
Forced : Нет
piratbit.pw



Скачать Сладкие грезы через торрент https://c.radikal.ru/c18/1907/26/d919ec223007.png Скачать фильм Сладкие грезы через торрент бесплантно в хорошем качестве Описание: Пэтси Клайн — популярная американская певица 50-х годов, одна из самых знаменитых исполнительниц музыки в стиле «кантри». ... 5 10 1
Торрент: Зарегистрирован [2019-07-14 07:28] · скачан: 2 раз
Статус: √ проверено
Размер: 5.2 GB
Как cкачать? Как скачать Сладкие грезы через торрент | qTorrent


>> Регистрируемся здесь <<






Отзывы и комментарии о схеме читаем и пишем здесь: ---> Отзывы и комментарии о схеме

Новые благодарочки в телеграм довольных пользователей:
скриншот   скриншот   скриншот   скриншот   скриншот
    Дорогой пользователь! Огромная просьба, поблагодарите релизера, оцените раздачу и оставьте свои комментарий, если Вы скачали Сладкие грезы через торрент бесплатно! Внесите свою лепту в развитие PiratBit!
    Комментировать посты могут только пользователи прошедшие не сложную регистрацию
    Показать сообщения:    

    Сладкие грезы через торрент
    Скачать бесплатно Сладкие грезы
    Сладкие грезы скачать торрент
    Сладкие грезы смотреть онлайн
    Cкачать фильм Сладкие грезы бесплатно
    Сладкие грезы скачать торрент в хорошем качестве
    Сладкие грезы смотреть онлайн бесплатно в хорошем качестве


    Вы не можете начинать темы
    Вы не можете отвечать на сообщения
    Вы не можете редактировать свои сообщения
    Вы не можете удалять свои сообщения
    Вы не можете голосовать в опросах
    Вы не можете прикреплять файлы к сообщениям
    Вы можете скачивать файлы