1 сезон

1 сезон

iTunes

1

КиноПоиск HD

Кинопоиск HD

iTunes

13

1 сезон

RePack

30

Ultimate

ВАЖНО

ИГРА 18+

pack

RePack

MK11
pack

Легкие деньги

RePack

jed

RePack

fifa19

RePack

RDR2

RePack

NEED FOR SPEED™ PAYBACK

4 сезон

9 сезон

Бесстыжие 9 сезон

Все сериалы

все сериалы на PB.wtf

RePack

FAR CRY 5
  
Magnet ссылка

Кровавая невеста / La novia ensangrentada (Висенте Аранда) [1972, Ужасы, BDRip 720p] AVO(Алексеев) piratbit.pw

Кровавая невеста через торрент piratbit.pw

Раздают: 1 [ 0 KB/s ]
Размер: 10.56 GB | Добавлен: 1 год 9 мес. назад | Торрент скачан:3 раза
Скачать  

13-07-2019 10:52 Кровавая невеста Скачать торрент  

Кровавая невеста / La novia ensangrentadaГод выпуска: 1972
Выпущено: Испания, Morgana Films
Жанр: ужасы
Продолжительность: 01:42:15
Перевод: Авторский (одноголосый закадровый) Антон Алексеев
Субтитры: Английские
Навигация по главам: Есть

Режиссёр: Висенте Аранда
В ролях: Симон Андреу, Марибель Мартин, Александра Бастедо, Дин Селмир, Анхель Ломбарте, Монтсеррат Хулио

Описание: Молодожены приезжают в родовое поместье мужа, где над ними начинает довлеть фамильное проклятие. Жену преследует призрак дамы в белом, толкая новобрачную на бессмысленные и жестокие убийства.
Не уделяя много внимания сюжету, Аранда тщательно воссоздает готическую атмосферу ужаса и одержимости. Развязка поражает кровавостью и безжалостностью.
Фильм снят по мотивам новеллы 1872 года «Кармилла» Джозефа Шеридана Ле Фаню, послужившей основой для множества фильмов о вампирах-женщинах.

rating

Качество: BDRip 720p
Формат: MKV
Видео: MPEG-4 AVC, 14300 Кбит/сек, 1280x694, 23.976 кадра/сек

Аудио #1: AC3, 2 ch, 192 Кбит/сек | Авторский (одноголосый закадровый) Антон Алексеев
Аудио #2: AAC, 1 ch, 144 Кбит/сек | Испанский
Аудио #3: AAC, 1 ch, 129 Кбит/сек | Английский дубляж
Аудио #4: AAC, 2 ch, 64 Кбит/сек | Английский, Commentary by Film Critics: Samm Deighan and Kat Ellinger



Сборка от:
General
Unique ID : 41356950030894216513527282669846869260 (0x1F1D0F109DE808EB2952A97E9CD5350C)
Format : Matroska
Format version : Version 4
File size : 10.6 GiB
Duration : 1 h 42 min
Overall bit rate : 14.8 Mb/s
Encoded date : UTC 2019-05-15 14:44:03
Writing application : mkvmerge v25.0.0 ('Prog Noir') 64-bit
Writing library : libebml v1.3.6 + libmatroska v1.4.9

Video
ID : 1
Format : AVC
Format/Info : Advanced Video Codec
Format profile : High@L4.1
Format settings : CABAC / 9 Ref Frames
Format settings, CABAC : Yes
Format settings, Reference frames : 9 frames
Codec ID : V_MPEG4/ISO/AVC
Duration : 1 h 42 min
Bit rate : 14.3 Mb/s
Width : 1 280 pixels
Height : 694 pixels
Display aspect ratio : 1.85:1
Frame rate mode : Constant
Frame rate : 23.976 (24000/1001) FPS
Color space : YUV
Chroma subsampling : 4:2:0
Bit depth : 8 bits
Scan type : Progressive
Bits/(Pixel*Frame) : 0.669
Stream size : 10.2 GiB (96%)
Title : Blood.Spattered.Bride.(1972).720p.BluRay.AAC1.0.x264-DON
Writing library : x264 core 155 r2901 7d0ff22
Encoding settings : cabac=1 / ref=9 / deblock=1:-3:-3 / analyse=0x3:0x113 / me=umh / subme=11 / psy=1 / psy_rd=1.05:0.00 / mixed_ref=1 / me_range=48 / chroma_me=1 / trellis=2 / 8x8dct=1 / cqm=0 / deadzone=21,11 / fast_pskip=0 / chroma_qp_offset=-2 / threads=22 / lookahead_threads=5 / sliced_threads=0 / slices=4 / nr=0 / decimate=0 / interlaced=0 / bluray_compat=0 / constrained_intra=0 / bframes=16 / b_pyramid=2 / b_adapt=2 / b_bias=0 / direct=3 / weightb=1 / open_gop=0 / weightp=2 / keyint=250 / keyint_min=23 / scenecut=40 / intra_refresh=0 / rc_lookahead=60 / rc=2pass / mbtree=0 / bitrate=14250 / ratetol=1.0 / qcomp=0.60 / qpmin=0 / qpmax=69 / qpstep=4 / cplxblur=20.0 / qblur=0.5 / vbv_maxrate=62500 / vbv_bufsize=78125 / nal_hrd=none / filler=0 / ip_ratio=1.30 / pb_ratio=1.20 / aq=3:0.65
Language : Spanish
Default : Yes
Forced : No

Audio #1
ID : 2
Format : AC-3
Format/Info : Audio Coding 3
Commercial name : Dolby Digital
Codec ID : A_AC3
Duration : 1 h 42 min
Bit rate mode : Constant
Bit rate : 192 kb/s
Channel(s) : 2 channels
Channel layout : L R
Sampling rate : 48.0 kHz
Frame rate : 31.250 FPS (1536 SPF)
Bit depth : 16 bits
Compression mode : Lossy
Stream size : 140 MiB (1%)
Title : AVO Антон Алексеев
Language : Russian
Service kind : Complete Main
Default : Yes
Forced : No

Audio #2
ID : 3
Format : AAC LC
Format/Info : Advanced Audio Codec Low Complexity
Codec ID : A_AAC-2
Duration : 1 h 42 min
Bit rate : 144 kb/s
Channel(s) : 1 channel
Channel layout : C
Sampling rate : 48.0 kHz
Frame rate : 46.875 FPS (1024 SPF)
Compression mode : Lossy
Delay relative to video : 9 ms
Stream size : 105 MiB (1%)
Title : Spanish
Language : Spanish
Default : No
Forced : No

Audio #3
ID : 4
Format : AAC LC
Format/Info : Advanced Audio Codec Low Complexity
Codec ID : A_AAC-2
Duration : 1 h 42 min
Bit rate : 129 kb/s
Channel(s) : 1 channel
Channel layout : C
Sampling rate : 48.0 kHz
Frame rate : 46.875 FPS (1024 SPF)
Compression mode : Lossy
Delay relative to video : 9 ms
Stream size : 94.1 MiB (1%)
Title : English
Language : English
Default : No
Forced : No

Audio #4
ID : 5
Format : AAC LC SBR
Format/Info : Advanced Audio Codec Low Complexity with Spectral Band Replication
Commercial name : HE-AAC
Format settings : Explicit
Codec ID : A_AAC-2
Duration : 1 h 42 min
Bit rate : 64.0 kb/s
Channel(s) : 2 channels
Channel layout : L R
Sampling rate : 48.0 kHz
Frame rate : 23.438 FPS (2048 SPF)
Compression mode : Lossy
Delay relative to video : 31 ms
Stream size : 46.8 MiB (0%)
Title : Commentary by Film Critics: Samm Deighan and Kat Ellinger
Language : English
Default : No
Forced : No

Text #1
ID : 6
Format : UTF-8
Codec ID : S_TEXT/UTF8
Codec ID/Info : UTF-8 Plain Text
Duration : 1 h 40 min
Bit rate : 24 b/s
Count of elements : 639
Stream size : 18.2 KiB (0%)
Title : Srt
Language : English
Default : No
Forced : No

Text #2
ID : 7
Format : VobSub
Muxing mode : zlib
Codec ID : S_VOBSUB
Codec ID/Info : Picture based subtitle format used on DVDs
Duration : 1 h 40 min
Bit rate : 3 887 b/s
Count of elements : 639
Stream size : 2.81 MiB (0%)
Title : Vobsub
Language : English
Default : No
Forced : No

Menu
00:00:00.000 : en:Chapter 01
00:11:03.496 : en:Chapter 02
00:20:11.168 : en:Chapter 03
00:30:42.799 : en:Chapter 04
00:39:22.485 : en:Chapter 05
00:52:06.582 : en:Chapter 06
01:01:13.336 : en:Chapter 07
01:14:13.366 : en:Chapter 08
01:22:41.331 : en:Chapter 09
01:32:08.398 : en:Chapter 10
Видеоряд от DON.
Рип с La novia ensangrentada 1972 1080p USA Blu-ray AVC DTS-HD MA 1.0 || Mondo Macabro

Синхронизация звука и сборка - GoldDust
piratbit.pw



Скачать Кровавая невеста через торрент https://img11.lostpic.net/2018/07/21/d579402d59c730b215078738ce6f13ad.jpg Скачать фильм Кровавая невеста через торрент бесплантно в хорошем качестве Описание: Молодожены приезжают в родовое поместье мужа, где над ними начинает довлеть фамильное проклятие. Жену преследует призрак дамы в ... 5 10 1
Info! Золотая раздача, скачанное не засчитывается.
Торрент: Зарегистрирован [2019-07-13 10:52] · скачан: 3 раз
Статус: √ проверено
Размер: 10.56 GB
Как cкачать? Как скачать Кровавая невеста через торрент | UTorrent

28-11-2019 20:33  

Отключить всю рекламу на сайте

    Дорогой пользователь! Огромная просьба, поблагодарите релизера, оцените раздачу и оставьте свои комментарий, если Вы скачали Кровавая невеста через торрент бесплатно! Внесите свою лепту в развитие PiratBit!
    Комментировать посты могут только пользователи прошедшие не сложную регистрацию
    Показать сообщения:    

    Кровавая невеста через торрент
    Скачать бесплатно Кровавая невеста
    Кровавая невеста скачать торрент
    Кровавая невеста смотреть онлайн
    Cкачать фильм Кровавая невеста бесплатно
    Кровавая невеста скачать торрент в хорошем качестве
    Кровавая невеста смотреть онлайн бесплатно в хорошем качестве


    Вы не можете начинать темы
    Вы не можете отвечать на сообщения
    Вы не можете редактировать свои сообщения
    Вы не можете удалять свои сообщения
    Вы не можете голосовать в опросах
    Вы не можете прикреплять файлы к сообщениям
    Вы можете скачивать файлы