Ссылка на приватное зеркало нашего сайта всего за 1$. Внимание количество ограничено!!!

2 сезон

iTunes

iTunes

1

iTunes

iTunes

iTunes

WEBRip

iTunes

30
pack

Вам бонус

ВАЖНО

!!Акция!!

Alien_RageХит недели

RePack

Horizon Zero Dawn

ИГРА 18+

pack

RePack

jed

!!Акция!!

Alien_Rage

RePack

fifa19

RePack

Assassins Creed: Odyssey

RePack

NEED FOR SPEED™ PAYBACK

4 сезон

9 сезон

Бесстыжие 9 сезон

Все сериалы

все сериалы на PB.wtf

RePack

FAR CRY 5
  

Гайлер (Пётр Дикарев, Михаил Меньших) [2017, драма, криминал, WEB-DL 1080p] piratbit.pw

Гайлер через торрент piratbit.pw

Размер: 4.81 GB | Добавлен: 1 год 2 мес. назад | Торрент скачан:100 раз
Скачать  

13-07-2019 02:26 Гайлер Скачать торрент  

ГайлерГод выпуска: 2017
Страна: Россия
Жанр: драма, криминал
Продолжительность: 01:50:30
Субтитры: отсутствуют

Режиссер: Пётр Дикарев, Михаил Меньших



В ролях: Захар Прилепин, Сергей Пускепалис, Алексей Вертков, Сергей Новиков, Артур Согоян, Ксения Шагаевская, Константин Телегин, Екатерина Жирова, Татьяна Жулянова, Зоя Терехова, Игорь Новиков, Владимир Казанцев, Владимир Дербенцев, Снежанна Мордвинова, Даниэлла Албаут

Описание: Бизнесмен Дмитрий возвращается на малую родину — в небольшой городок в Сибири — после 15-летнего отсутствия. Причина возвращения трагическая: при ограблении погибли его родители, и Дмитрий настроен найти и лично покарать преступников. Вместе с ним приезжает его друг, армянин Рубик. До поры до времени никто не догадывается, что ради своей цели друзья готовы на многое, даже вернуться в суровое прошлое и превратиться в настоящих волков. Но жизнь вносит свои коррективы в их планы, поставив на кон жизнь Рубика…

Качество: WEB-DL 1080p
Формат: MKV

Видео: 1920х1080 (16:9), 25 fps, AVC MPEG-4 (x264), High@L4.0 6000 kbps avg, 0.152 bit/pixel
Аудио: Russian (AC3, 2 ch, 192 kbps, 16 bits, 48.0 KHz) - оригинал
скриншот  скриншот  скриншот  скриншот  скриншот  

скриншот  скриншот  скриншот  скриншот  скриншот  

General
Unique ID : 217760783106190507133715561671516839152 (0xA3D33387B97DAA0B8EAD3D11B9795CF0)
Complete name : D:\Gailer.2017.WEB-DL.(1080p).ExKinoRay.mkv
Format : Matroska
Format version : Version 4 / Version 2
File size : 4.81 GiB
Duration : 1 h 53 min
Overall bit rate mode : Constant
Overall bit rate : 6 086 kb/s
Encoded date : UTC 2019-07-12 22:35:39
Writing application : mkvmerge v7.8.0 ('River Man') 32bit built on Mar 27 2015 16:18:02
Writing library : libebml v1.3.1 + libmatroska v1.4.2

Video
ID : 1
Format : AVC
Format/Info : Advanced Video Codec
Format profile : High@L4.1
Format settings : 2 Ref Frames
Format settings, CABAC : No
Format settings, ReFrames : 2 frames
Codec ID : V_MPEG4/ISO/AVC
Duration : 1 h 53 min
Bit rate mode : Constant
Bit rate : 6 000 kb/s
Width : 1 920 pixels
Height : 1 080 pixels
Display aspect ratio : 16:9
Frame rate mode : Constant
Frame rate : 25.000 FPS
Standard : PAL
Color space : YUV
Chroma subsampling : 4:2:0
Bit depth : 8 bits
Scan type : Progressive
Bits/(Pixel*Frame) : 0.116
Stream size : 4.65 GiB (97%)
Default : Yes
Forced : No
Color range : Limited
Color primaries : BT.709
Transfer characteristics : BT.709
Matrix coefficients : BT.709

Audio
ID : 2
Format : AC-3
Format/Info : Audio Coding 3
Codec ID : A_AC3
Duration : 1 h 53 min
Bit rate mode : Constant
Bit rate : 192 kb/s
Channel(s) : 2 channels
Channel positions : Front: L R
Sampling rate : 48.0 kHz
Frame rate : 31.250 FPS (1536 SPF)
Bit depth : 16 bits
Compression mode : Lossy
Stream size : 155 MiB (3%)
Language : Russian
Service kind : Complete Main
Default : Yes
Forced : No

piratbit.pw



Скачать Гайлер через торрент http://img15.lostpic.net/2019/07/12/13772667483aa49c4d78091a61b13090.jpg Скачать фильм Гайлер через торрент бесплантно в хорошем качестве Описание: Бизнесмен Дмитрий возвращается на малую родину — в небольшой городок в Сибири — после 15-летнего отсутствия. Причина возвращения ... 10 10 8
Торрент: Зарегистрирован [2019-07-13 02:26] · скачан: 100 раз
Статус: √ проверено
Размер: 4.81 GB
Как cкачать? Как скачать Гайлер через торрент | qTorrent

% Раздел Тема Автор DL S | L
Наши фильмы (HD, WEB-DL 720p, 1080p) [ 3.31 GB ] Гайлер [2017 WEB-DL 720p] bober100 Скачать
1 | 0
Наши новые фильмы 2017 [ 1.4 GB ] Гайлер [2017 WEB-DLRip-AVC] sokol_ok Скачать
2 | 0
Наши новые фильмы 2017 [ 745 MB ] Гайлер [2017 WEB-DLRip-AVC] sokol_ok Скачать
3 | 1
Наши новые фильмы 2017 [ 1.46 GB ] Гайлер [2017 WEB-DLRip] bober100 Скачать
1 | 0
Наши новые фильмы 2017 [ 1.37 GB ] Гайлер [2017 SATRip] bober100 Скачать
1 | 0

28-11-2019 20:33  

Отключить всю рекламу на сайте

31-07-2019 08:19 Гайлер Скачать торрент  

Отличное кино оценка фильму 5 из 5 автору спс.piratbit.pw



    Дорогой пользователь! Огромная просьба, поблагодарите релизера, оцените раздачу и оставьте свои комментарий, если Вы скачали Гайлер через торрент бесплатно! Внесите свою лепту в развитие PiratBit!
    Комментировать посты могут только пользователи прошедшие не сложную регистрацию
    Показать сообщения:    

    Гайлер через торрент
    Скачать бесплатно Гайлер
    Гайлер скачать торрент
    Гайлер смотреть онлайн
    Cкачать фильм Гайлер бесплатно
    Гайлер скачать торрент в хорошем качестве
    Гайлер смотреть онлайн бесплатно в хорошем качестве


    Вы не можете начинать темы
    Вы не можете отвечать на сообщения
    Вы не можете редактировать свои сообщения
    Вы не можете удалять свои сообщения
    Вы не можете голосовать в опросах
    Вы не можете прикреплять файлы к сообщениям
    Вы можете скачивать файлы