новый адрес пиратбит piratbit
Мега распродажа FORZA HORIZON 4 ULTIMATE+ВСЕ DLC+ОНЛАЙН всего за 499р. 349 руб. (супер цена). Внимание количество ограничено!!!

iTunes

1+1

iTunes

мы

iTunes

1

iTunes

Чернобыль

iTunes

Ральф против интернета

Лицензия

ПШазам

Лицензия

Игра престолов

Лицензия

30
pack

ВАЖНО

!!Акция!!

Alien_RageХит недели

RePack

Resident Evil 21

ИГРА 18+

pack

RePack

Metro:Exodus

!!Акция!!

Alien_Rage

RePack

fifa19

RePack

Assassins Creed: Odyssey

RePack

NEED FOR SPEED™ PAYBACK

3 сезон

9 сезон

Бесстыжие 9 сезон

Все сериалы

все сериалы на PB.wtf

RePack

FAR CRY 5
Ребята, катастрофически не хватает 1900р. для оплаты серверов за Октябрь (всвязи с блокировками трафик упал в 3 раза), 1-2р., выручайте.
  

Могучий Джо Янг / Mighty Joe Young (Рон Андервуд) [1998, приключения, боевик, фэнтези, семейный, Blu-Ray Remux 1080p] DUB, MVO, DVO, 2xAVO (А.Кашкин, Е.Хрусталёв) piratbit.pw

Могучий Джо Янг через торрент piratbit.pw

Размер: 34.34 GB | Добавлен: 4 мес. назад | Торрент скачан:1 раз
Скачать  

11-07-2019 20:07 Могучий Джо Янг Скачать торрент  

Могучий Джо Янг / Mighty Joe Young
Год выпуска: 1998

Страна: США

Жанр: Приключения, боевик, фэнтези, семейный

Продолжительность: 01:54:25

Перевод: Дублированный, профессиональный (многоголосый), профессиональный (двухголосый), авторский (одноголосый)

Субтитры: Русские, английские

Режиссер: Рон Андервуд

rating

В ролях: Билл Пэкстон, Шарлиз Терон, Раде Шербеджия, Реджина Кинг, Питер Фёрт, Навин Эндрюс, Дэвид Пэймер, Роберт Уиздом, Кристиан Клименсон, Рэй Харрихаузен

Описание: Джилл ребёнком стала свидетельницей смерти своей матери и матери Джо, младенца гориллы, от рук браконьеров во главе с Андреем Штрассером. В этой схватке браконьер теряет большой и указательный пальцы. Двенадцать лет спустя Джилл вырастила Джо (из-за его размера другие гориллы его не приняли), и оба живут в относительном мире, пока директор заповедника Грегг О’Хара не убеждает Джилл, что они будут в большей безопасности от браконьеров, если переедут в Соединённые Штаты.
Качество: Blu-Ray Remux 1080p
Формат: BDMV
Видео: MPEG-4 AVC, 32000 Кбит/с, 1920x1080, 23.976 Кадр/с
Аудио#1: Русский, AC3, 2 ch, 192 Кбит/с - DUB (Невафильм)
Аудио#2: Русский, AC3, 2 ch, 192 Кбит/с - MVO (СТС)
Аудио#3: Русский, DTS, 6 ch, 2987 Кбит/с - AVO (А.Кашкин)
Аудио#4: Русский, DTS, 6 ch, 4190 Кбит/с - AVO (Е.Хрусталёв)
Аудио#5: Украинский, AC3, 2 ch, 192 Кбит/с - DVO (1+1)
Аудио#6: Английский, DTS, 6 ch, 2560 Кбит/с
Видео
Идентификатор : 4113 (0x1011)
Идентификатор меню : 1 (0x1)
Формат : AVC
Формат/Информация : Advanced Video Codec
Профиль формата : High@L4.1
Настройки формата : CABAC / 4 Ref Frames
Параметр CABAC формата : Да
Параметр RefFrames формата : 4 кадра
Идентификатор кодека : 27
Продолжительность : 1 ч. 54 м.
Вид битрейта : Переменный
Максимальный битрейт : 32,0 Мбит/сек
Ширина : 1920 пикселей
Высота : 1080 пикселей
Соотношение сторон : 16:9
Частота кадров : 23,976 (24000/1001) кадра/сек
Цветовое пространство : YUV
Субдискретизация насыщенности : 4:2:0
Битовая глубина : 8 бит
Тип развёртки : Прогрессивная

Аудио #1
Идентификатор : 4352 (0x1100)
Идентификатор меню : 1 (0x1)
Формат : AC-3
Формат/Информация : Audio Coding 3
Коммерческое название : Dolby Digital
Идентификатор кодека : 129
Продолжительность : 1 ч. 54 м.
Вид битрейта : Постоянный
Битрейт : 192 Кбит/сек
Каналы : 2 канала
Channel layout : L R
Частота : 48,0 КГц
Частота кадров : 31,250 кадров/сек (1536 SPF)
Битовая глубина : 16 бит
Метод сжатия : С потерями
Размер потока : 157 Мбайт (0%)
Язык : Russian
ServiceKind/String : Complete Main

Аудио #2
Идентификатор : 4353 (0x1101)
Идентификатор меню : 1 (0x1)
Формат : AC-3
Формат/Информация : Audio Coding 3
Коммерческое название : Dolby Digital
Идентификатор кодека : 129
Продолжительность : 1 ч. 54 м.
Вид битрейта : Постоянный
Битрейт : 192 Кбит/сек
Каналы : 2 канала
Channel layout : L R
Частота : 48,0 КГц
Частота кадров : 31,250 кадров/сек (1536 SPF)
Битовая глубина : 16 бит
Метод сжатия : С потерями
Размер потока : 157 Мбайт (0%)
Язык : Russian
ServiceKind/String : Complete Main

Аудио #3
Идентификатор : 4354 (0x1102)
Идентификатор меню : 1 (0x1)
Формат : DTS XLL
Формат/Информация : Digital Theater Systems
Коммерческое название : DTS-HD Master Audio
Режим смешивания : Stream extension
Идентификатор кодека : 134
Продолжительность : 1 ч. 54 м.
Вид битрейта : Переменный
Каналы : 6 каналов
Channel layout : C L R Ls Rs LFE
Частота : 48,0 КГц
Частота кадров : 93,750 кадра/сек (512 SPF)
Битовая глубина : 24 бит
Метод сжатия : Без потерь
Язык : Russian

Аудио #4
Идентификатор : 4355 (0x1103)
Идентификатор меню : 1 (0x1)
Формат : DTS XLL
Формат/Информация : Digital Theater Systems
Коммерческое название : DTS-HD Master Audio
Режим смешивания : Stream extension
Идентификатор кодека : 134
Продолжительность : 1 ч. 54 м.
Вид битрейта : Переменный
Каналы : 6 каналов
Channel layout : C L R Ls Rs LFE
Частота : 48,0 КГц
Частота кадров : 93,750 кадра/сек (512 SPF)
Битовая глубина : 24 бит
Метод сжатия : Без потерь
Язык : Russian

Аудио #5
Идентификатор : 4356 (0x1104)
Идентификатор меню : 1 (0x1)
Формат : AC-3
Формат/Информация : Audio Coding 3
Коммерческое название : Dolby Digital
Идентификатор кодека : 129
Продолжительность : 1 ч. 54 м.
Вид битрейта : Постоянный
Битрейт : 192 Кбит/сек
Каналы : 2 канала
Channel layout : L R
Частота : 48,0 КГц
Частота кадров : 31,250 кадров/сек (1536 SPF)
Битовая глубина : 16 бит
Метод сжатия : С потерями
Размер потока : 157 Мбайт (0%)
Язык : Ukrainian
ServiceKind/String : Complete Main

Аудио #6
Идентификатор : 4357 (0x1105)
Идентификатор меню : 1 (0x1)
Формат : DTS XLL
Формат/Информация : Digital Theater Systems
Коммерческое название : DTS-HD Master Audio
Режим смешивания : Stream extension
Идентификатор кодека : 134
Продолжительность : 1 ч. 54 м.
Вид битрейта : Переменный
Каналы : 6 каналов
Channel layout : C L R Ls Rs LFE
Частота : 48,0 КГц
Частота кадров : 93,750 кадра/сек (512 SPF)
Битовая глубина : 24 бит
Метод сжатия : Без потерь
Язык : English

Текст #1
Идентификатор : 4608 (0x1200)
Идентификатор меню : 1 (0x1)
Формат : PGS
Идентификатор кодека : 144
Язык : Russian

Текст #2
Идентификатор : 4609 (0x1201)
Идентификатор меню : 1 (0x1)
Формат : PGS
Идентификатор кодека : 144
Язык : Russian

Текст #3
Идентификатор : 4610 (0x1202)
Идентификатор меню : 1 (0x1)
Формат : PGS
Идентификатор кодека : 144
Задержка видео : 1 с. 335 мс.
Язык : English

скриншот   скриншот   скриншот   скриншот   скриншот  

piratbit.pw



Скачать Могучий Джо Янг через торрент http://pic1.kartinco.top/images/12/gedkt.jpg Скачать фильм Могучий Джо Янг через торрент бесплантно в хорошем качестве Описание: Джилл ребёнком стала свидетельницей смерти своей матери и матери Джо, младенца гориллы, от рук браконьеров во главе с Андреем ... 5 10 1
Info! Золотая раздача, скачанное не засчитывается.
Торрент: Зарегистрирован [2019-07-11 20:07] · скачан: 1 раз
Статус: √ проверено
Размер: 34.34 GB
Как cкачать? Как скачать Могучий Джо Янг через торрент | qTorrent

% Раздел Тема Автор DL S | L
Фильмы [HD 720p, 1080p] (Хороший звук DUB, MVO) [ 3.6 GB ] Могучий Джо Янг / Mighty Joe Young [1998 BDRip 1080p HEVC +MVO+AVO] Мичман37 Скачать
1 | 0
Фильмы [HD 720p, 1080p] (Хороший звук DUB, MVO) [ 9.12 GB ] Могучий Джо Янг / Mighty Joe Young [1998 BDRip 720p Dub MVO AVO] от ExKinoRay morfyi Скачать
1 | 0
Фильмы [HD 720p, 1080p] (Хороший звук DUB, MVO) [ 5.43 GB ] Могучий Джо Янг / Mighty Joe Young [1998 BDRip 720p by msltel] DUB MVO AVO msltel Скачать
1 | 0
Фильмы [HD 720p, 1080p] (Хороший звук DUB, MVO) [ 14.78 GB ] Могучий Джо Янг / Mighty Joe Young [1998 BDRip 1080p by msltel] DUB MVO AVO msltel Скачать
1 | 0


>> Регистрируемся здесь <<






Отзывы и комментарии о схеме читаем и пишем здесь: ---> Отзывы и комментарии о схеме

Новые благодарочки в телеграм довольных пользователей:
скриншот   скриншот   скриншот   скриншот   скриншот
    Дорогой пользователь! Огромная просьба, поблагодарите релизера, оцените раздачу и оставьте свои комментарий, если Вы скачали Могучий Джо Янг через торрент бесплатно! Внесите свою лепту в развитие PiratBit!
    Комментировать посты могут только пользователи прошедшие не сложную регистрацию
    Показать сообщения:    

    Могучий Джо Янг через торрент
    Скачать бесплатно Могучий Джо Янг
    Могучий Джо Янг скачать торрент
    Могучий Джо Янг смотреть онлайн
    Cкачать фильм Могучий Джо Янг бесплатно
    Могучий Джо Янг скачать торрент в хорошем качестве
    Могучий Джо Янг смотреть онлайн бесплатно в хорошем качестве


    Вы не можете начинать темы
    Вы не можете отвечать на сообщения
    Вы не можете редактировать свои сообщения
    Вы не можете удалять свои сообщения
    Вы не можете голосовать в опросах
    Вы не можете прикреплять файлы к сообщениям
    Вы можете скачивать файлы