Мега распродажа FORZA HORIZON 4 ULTIMATE+ВСЕ DLC+ОНЛАЙН всего за 499р. 349 руб. (супер цена). Внимание количество ограничено!!!

iTunes

1+1

iTunes

мы

iTunes

1

1 сезон

Чернобыль

1 сезон

Ральф против интернета

Лицензия

ПШазам

8 сезон

Игра престолов

Лицензия

30
pack

ВАЖНО

!!Акция!!

Alien_RageХит недели

RePack

Resident Evil 21

ИГРА 18+

pack

RePack

Metro:Exodus

!!Акция!!

Alien_Rage

RePack

fifa19

RePack

Assassins Creed: Odyssey

RePack

NEED FOR SPEED™ PAYBACK

3 сезон

9 сезон

Бесстыжие 9 сезон

Все сериалы

все сериалы на PB.wtf

RePack

FAR CRY 5
Ребята, катастрофически не хватает 2730р. для оплаты серверов за ИЮНЬ (всвязи с блокировками трафик упал в 3 раза), 1-2р., выручайте.
  

Букашки 2 / Minuscule - Les mandibules du bout du monde (Хелен Жиро, Томас Сабо) [2018, Мультфильм, комедия, приключения, семейный, BDRip 1080p] [iTunes] piratbit.pw

Букашки 2 через торрент piratbit.pw

Раздают: 11 [ 38 KB/s ]
Размер: 4.43 GB | Добавлен: 10 д. назад | Торрент скачан:223 раза
Скачать  

11-07-2019 19:27 Букашки 2 Скачать торрент  

Букашки 2 / Minuscule - Les mandibules du bout du monde
Год выпуска: 2018
Страна: Франция, Китай
Жанр: Мультфильм, комедия, приключения, семейный
Продолжительность: 01:32:14
Перевод: Не требуется | iTunes
Субтитры: отсутствуют

Режиссер: Хелен Жиро, Томас Сабо

rating

В ролях: Бруно Саломон, Тьерри Фремон, Стефани Кулон, Жан Нанга, Сара Коэн-Хадриа, Жан-Поль Гуйон, Бо Готье де Кермоаль, Франк Бенезек, Люк Морван, Хуэйфан Лю

Описание: Герои перемещаются из Франции на тропический остров Гваделупа, где их ждут захватывающие приключения в духе «Пиратов Карибского моря» и романтическая история в духе «Ромео и Джульетты».

Качество: BDRip 1080p
Формат: MKV

Видео: MPEG-4 AVC, 1920x804, 6500 Кbit/s, 23.976 fps
Аудио: 48 kHz, AC3, 5.1, 384 Kbps


*** Примечание: Релиз с 2D-3D издания, местами есть полосы по бокам.
скриншот  скриншот  скриншот  скриншот  скриншот  

General
Unique ID : 239690790820736386569292851087905695411 (0xB452C463851058E69A9D84378538A6B3)
Complete name : D:Video111Minuscule.2.Les.Mandibules.Du.Bout.Du.Monde.2018.BDRip.1080p.seleZen.mkv
Format : Matroska
Format version : Version 4
File size : 4.43 GiB
Duration : 1 h 32 min
Overall bit rate : 6 883 kb/s
Movie name : Minuscule 2 Les Mandibules Du Bout Du Monde 2018 from селезень
Encoded date : UTC 2019-07-11 19:08:57
Writing application : mkvmerge v35.0.0 ('All The Love In The World') 64-bit
Writing library : libebml v1.3.9 + libmatroska v1.5.2

Video
ID : 1
Format : AVC
Format/Info : Advanced Video Codec
Format profile : High@L4.1
Format settings : CABAC / 5 Ref Frames
Format settings, CABAC : Yes
Format settings, Reference : 5 frames
Codec ID : V_MPEG4/ISO/AVC
Duration : 1 h 32 min
Bit rate : 6 500 kb/s
Width : 1 920 pixels
Height : 804 pixels
Display aspect ratio : 2.40:1
Frame rate mode : Constant
Frame rate : 23.976 (24000/1001) FPS
Color space : YUV
Chroma subsampling : 4:2:0
Bit depth : 8 bits
Scan type : Progressive
Bits/(Pixel*Frame) : 0.176
Stream size : 4.19 GiB (94%)
Title : seleZen
Writing library : x264 core 148 r2705kMod 3f5ed56
Encoding settings : cabac=1 / ref=5 / deblock=1:-2:-2 / analyse=0x3:0x133 / me=umh / subme=10 / psy=1 / fade_compensate=0.00 / psy_rd=1.20:0.05 / mixed_ref=1 / me_range=32 / chroma_me=1 / trellis=2 / 8x8dct=1 / cqm=0 / deadzone=21,11 / fast_pskip=0 / chroma_qp_offset=-3 / threads=12 / lookahead_threads=2 / sliced_threads=0 / nr=0 / decimate=0 / interlaced=0 / bluray_compat=0 / constrained_intra=0 / fgo=0 / bframes=8 / b_pyramid=2 / b_adapt=2 / b_bias=0 / direct=3 / weightb=1 / open_gop=0 / weightp=2 / keyint=240 / keyint_min=23 / scenecut=40 / intra_refresh=0 / rc_lookahead=50 / rc=2pass / mbtree=0 / bitrate=6500 / ratetol=1.0 / qcomp=0.60 / qpmin=0 / qpmax=51 / qpstep=4 / cplxblur=20.0 / qblur=0.5 / vbv_maxrate=50000 / vbv_bufsize=62500 / nal_hrd=none / filler=0 / ip_ratio=1.40 / pb_ratio=1.30 / aq=3:0.80
Language : English
Default : Yes
Forced : No

Audio
ID : 2
Format : AC-3
Format/Info : Audio Coding 3
Commercial name : Dolby Digital
Codec ID : A_AC3
Duration : 1 h 32 min
Bit rate mode : Constant
Bit rate : 384 kb/s
Channel(s) : 6 channels
Channel layout : L R C LFE Ls Rs
Sampling rate : 48.0 kHz
Frame rate : 31.250 FPS (1536 SPF)
Bit depth : 16 bits
Compression mode : Lossy
Stream size : 253 MiB (6%)
Service kind : Complete Main
Default : Yes
Forced : Yes

Menu
00:00:00.000 : :Chapitre 01
00:10:32.632 : :Chapitre 02
00:21:44.845 : :Chapitre 03
00:34:11.299 : :Chapitre 04
00:45:11.834 : :Chapitre 05
00:56:38.019 : :Chapitre 06
01:07:22.163 : :Chapitre 07
01:19:37.564 : :Chapitre 08

piratbit.pw



Скачать Букашки 2 через торрент http://img16.lostpic.net/2019/07/11/9d04114d868e4b61c44e447d6ecedfb5.jpg Скачать фильм Букашки 2 через торрент бесплантно в хорошем качестве Описание: Герои перемещаются из Франции на тропический остров Гваделупа, где их ждут захватывающие приключения в духе «Пиратов Карибского ... 10 10 12
Торрент: Зарегистрирован [2019-07-11 19:27] · скачан: 223 раз
Статус: √ проверено
Размер: 4.43 GB
Как cкачать? Как скачать Букашки 2 через торрент | qTorrent

% Раздел Тема Автор DL S | L
Зарубежные Мультфильмы (BDRip 1080p, 720p, Blu-ray, BD-Remux) [ 2.24 GB ] Букашки 2 / Minuscule - Les mandibules du bout du monde [2018 Мультфильм BDRip 720p] bober100 Скачать
9 | 0
Иностранные мультфильмы [ 1.46 GB ] Букашки 2 / Minuscule - Les mandibules du bout du monde [2018 Мультфильм BDRip] bober100 Скачать
11 | 0


>> Регистрируемся здесь <<






Отзывы и комментарии о схеме читаем и пишем здесь: ---> Отзывы и комментарии о схеме

Новые благодарочки в телеграм довольных пользователей:
скриншот   скриншот   скриншот   скриншот   скриншот

13-07-2019 04:58 Букашки 2 Скачать торрент  

Сэмпл бы с полосамиpiratbit.pw



    Дорогой пользователь! Огромная просьба, поблагодарите релизера, оцените раздачу и оставьте свои комментарий, если Вы скачали Букашки 2 через торрент бесплатно! Внесите свою лепту в развитие PiratBit!
    Комментировать посты могут только пользователи прошедшие не сложную регистрацию
    Показать сообщения:    

    Букашки 2 через торрент
    Скачать бесплатно Букашки 2
    Букашки 2 скачать торрент
    Букашки 2 смотреть онлайн
    Cкачать фильм Букашки 2 бесплатно
    Букашки 2 скачать торрент в хорошем качестве
    Букашки 2 смотреть онлайн бесплатно в хорошем качестве


    Вы не можете начинать темы
    Вы не можете отвечать на сообщения
    Вы не можете редактировать свои сообщения
    Вы не можете удалять свои сообщения
    Вы не можете голосовать в опросах
    Вы не можете прикреплять файлы к сообщениям
    Вы можете скачивать файлы