Мега распродажа FORZA HORIZON 4 ULTIMATE+ВСЕ DLC+ОНЛАЙН всего за 499р. 349 руб. (супер цена). Внимание количество ограничено!!!

iTunes

1+1

iTunes

мы

iTunes

1

1 сезон

Чернобыль

1 сезон

Ральф против интернета

Лицензия

ПШазам

8 сезон

Игра престолов

Лицензия

30
pack

ВАЖНО

!!Акция!!

Alien_RageХит недели

RePack

Resident Evil 21

ИГРА 18+

pack

RePack

Metro:Exodus

!!Акция!!

Alien_Rage

RePack

fifa19

RePack

Assassins Creed: Odyssey

RePack

NEED FOR SPEED™ PAYBACK

3 сезон

9 сезон

Бесстыжие 9 сезон

Все сериалы

все сериалы на PB.wtf

RePack

FAR CRY 5
Ребята, катастрофически не хватает 2730р. для оплаты серверов за ИЮНЬ (всвязи с блокировками трафик упал в 3 раза), 1-2р., выручайте.
  

Нелл / Nell (Майкл Эптед) [1994 г., драма, экранизация, WEB-DL 1080p] DVO + AVO - KORSAR piratbit.pw

Нелл через торрент piratbit.pw

Размер: 12.5 GB | Добавлен: 10 д. назад | Торрент скачан:3 раза
Скачать  

11-07-2019 18:41 Нелл Скачать торрент  

Нелл / Nell
Год выпуска: 1994
Страна: США
Жанр: Драма, экранизация
Продолжительность: 01:52:56
Перевод: Профессиональный двухголосый, авторский одноголосый
Субтитры: Английские, финские
Режиссёр: Майкл Эптед
В ролях: Джоди Фостер, Лиам Нисон, Наташа Ричардсон, Ричард Либертини, Ник Сирси, Робин Маллинз, Джереми Дэвис, О’Нил Комптон, Хезер М. Бомба, Марианн Е. Бомба, Шон Бриджерс
Описание: Деревенский доктор Джером Ловелл обнаруживает в глухих местах Северной Каролины «дикарку», которая сторонится людей и говорит на неизвестном языке. Оказывается, мать воспитала Нелл и её сестру-близнеца без всякого контакта с цивилизацией. С самого рождения девочки не видели ни одного человека, кроме матери и друг друга. Из-за травмы речь матери Нелл была сильно искажена, в результате чего Нелл говорит на своем, особенном языке. После смерти матери и сестры повзрослевшей Нелл приходится выйти в большой мир. Доктор хочет помочь Нелл адаптироваться, а студент-психолог Паула Ольсен и её босс Александр Пэли настаивают на изучении её в лаборатории.

rating

Качество: WEB-DL 1080p
Формат: MKV
Видео: MPEG-4 AVC, 1920x1080 (16:9), 14100 kbps, 23.976 fps
Аудио 1: Russian: 48 kHz, AC3, 2.0 ch, 192 kbps - DVO, НТВ+
Аудио 2: Russian: 48 kHz, AC3, 2.0 ch, 192 kbps - AVO, А. Гаврилов
Аудио 3: Russian: 48 kHz, AC3, 2.0 ch, 192 kbps - AVO, С. Визгунов
Аудио 4: Russian: 48 kHz, AC3, 2.0 ch, 192 kbps - DVO, Селена Интернешнл
Аудио 5: English: 48 kHz, E-AC3, 5.1 ch, 640 kbps - Оригинал

Релиз от:


Общее
Уникальный идентификатор : 199782171665200502324440064628803875115 (0x964CA58C96DAAE34BCB24B265E61B12B)
Полное имя : Nell.1994.WEB-DL.1080p.mkv
Формат : Matroska
Версия формата : Version 2
Размер файла : 12,5 Гбайт
Продолжительность : 1 ч. 52 м.
Режим общего битрейта : Переменный
Общий поток : 15,9 Мбит/сек
Дата кодирования : UTC 2018-01-28 16:03:32
Программа кодирования : mkvmerge v5.8.0 ('No Sleep / Pillow') built on Sep 2 2012 15:37:04
Библиотека кодирования : libebml v1.2.3 + libmatroska v1.3.0

Видео
Идентификатор : 1
Формат : AVC
Формат/Информация : Advanced Video Codec
Профиль формата : High@L4
Параметр CABAC формата : Да
Параметр RefFrames формата : 4 кадра
Идентификатор кодека : V_MPEG4/ISO/AVC
Продолжительность : 1 ч. 52 м.
Вид битрейта : Переменный
Битрейт : 14,1 Мбит/сек
Максимальный битрейт : 15,0 Мбит/сек
Ширина : 1920 пикселей
Высота : 1080 пикселей
Соотношение сторон : 16:9
Режим частоты кадров : Постоянный
Частота кадров : 23,976 (24000/1001) кадра/сек
Цветовое пространство : YUV
Субдискретизация насыщенности : 4:2:0
Битовая глубина : 8 бит
Тип развёртки : Прогрессивная
Бит/(Пиксели*Кадры) : 0.284
Размер потока : 11,1 Гбайт (89%)
Язык : English
Default : Да
Forced : Нет
Цветовой диапазон : Limited
Основные цвета : BT.709
Характеристики трансфера : BT.709
Коэффициенты матрицы : BT.709

Аудио #1
Идентификатор : 2
Формат : AC-3
Формат/Информация : Audio Coding 3
Параметр Endianness формата : Big
Идентификатор кодека : A_AC3
Продолжительность : 1 ч. 52 м.
Вид битрейта : Постоянный
Битрейт : 192 Кбит/сек
Каналы : 2 канала
Расположение каналов : Front: L R
Частота : 48,0 КГц
Частота кадров : 31,250 кадров/сек (1536 SPF)
Битовая глубина : 16 бит
Метод сжатия : С потерями
Задержка видео : 8 мс.
Размер потока : 155 Мбайт (1%)
Заголовок : DVO, НТВ+
Язык : Russian
Default : Да
Forced : Нет

Аудио #2
Идентификатор : 3
Формат : AC-3
Формат/Информация : Audio Coding 3
Параметр Endianness формата : Big
Идентификатор кодека : A_AC3
Продолжительность : 1 ч. 52 м.
Вид битрейта : Постоянный
Битрейт : 192 Кбит/сек
Каналы : 2 канала
Расположение каналов : Front: L R
Частота : 48,0 КГц
Частота кадров : 31,250 кадров/сек (1536 SPF)
Битовая глубина : 16 бит
Метод сжатия : С потерями
Задержка видео : 8 мс.
Размер потока : 155 Мбайт (1%)
Заголовок : AVO, А. Гаврилов
Язык : Russian
Default : Нет
Forced : Нет

Аудио #3
Идентификатор : 4
Формат : AC-3
Формат/Информация : Audio Coding 3
Параметр Endianness формата : Big
Идентификатор кодека : A_AC3
Продолжительность : 1 ч. 52 м.
Вид битрейта : Постоянный
Битрейт : 192 Кбит/сек
Каналы : 2 канала
Расположение каналов : Front: L R
Частота : 48,0 КГц
Частота кадров : 31,250 кадров/сек (1536 SPF)
Битовая глубина : 16 бит
Метод сжатия : С потерями
Задержка видео : 8 мс.
Размер потока : 155 Мбайт (1%)
Заголовок : AVO, С. Визгунов
Язык : Russian
Default : Нет
Forced : Нет

Аудио #4
Идентификатор : 5
Формат : AC-3
Формат/Информация : Audio Coding 3
Параметр Endianness формата : Big
Идентификатор кодека : A_AC3
Продолжительность : 1 ч. 52 м.
Вид битрейта : Постоянный
Битрейт : 192 Кбит/сек
Каналы : 1 канал
Расположение каналов : Front: C
Частота : 48,0 КГц
Частота кадров : 31,250 кадров/сек (1536 SPF)
Битовая глубина : 16 бит
Метод сжатия : С потерями
Размер потока : 155 Мбайт (1%)
Заголовок : DVO, Селена Интернешнл
Язык : Russian
Default : Нет
Forced : Нет

Аудио #5
Идентификатор : 6
Формат : E-AC-3
Формат/Информация : Enhanced Audio Coding 3
Параметр Endianness формата : Big
Идентификатор кодека : A_EAC3
Продолжительность : 1 ч. 52 м.
Вид битрейта : Постоянный
Битрейт : 640 Кбит/сек
Каналы : 6 каналов
Расположение каналов : Front: L C R, Side: L R, LFE
Частота : 48,0 КГц
Частота кадров : 187,500 кадров/сек (256 SPF)
Метод сжатия : С потерями
Размер потока : 517 Мбайт (4%)
Заголовок : Оригинал
Язык : English
Default : Нет
Forced : Нет

Текст #1
Идентификатор : 7
Формат : UTF-8
Идентификатор кодека : S_TEXT/UTF8
Идентификатор кодека/Информация : UTF-8 Plain Text
Язык : English
Default : Нет
Forced : Нет

Текст #2
Идентификатор : 8
Формат : UTF-8
Идентификатор кодека : S_TEXT/UTF8
Идентификатор кодека/Информация : UTF-8 Plain Text
Заголовок : SDH
Язык : English
Default : Нет
Forced : Нет

Текст #3
Идентификатор : 9
Формат : UTF-8
Идентификатор кодека : S_TEXT/UTF8
Идентификатор кодека/Информация : UTF-8 Plain Text
Язык : Finnish
Default : Нет
Forced : Нет

Меню
00:00:10.920 : en:Scene 1
00:04:43.007 : en:Scene 2
00:06:31.007 : en:Scene 3
00:07:35.007 : en:Scene 4
00:10:14.007 : en:Scene 5
00:12:03.007 : en:Scene 6
00:13:40.007 : en:Scene 7
00:14:29.007 : en:Scene 8
00:15:28.007 : en:Scene 9
00:16:47.007 : en:Scene 10
00:18:34.007 : en:Scene 11
00:20:55.007 : en:Scene 12
00:21:47.007 : en:Scene 13
00:22:34.007 : en:Scene 14
00:24:07.007 : en:Scene 15
00:25:39.007 : en:Scene 16
00:27:33.007 : en:Scene 17
00:30:02.007 : en:Scene 18
00:31:13.007 : en:Scene 19
00:34:39.007 : en:Scene 20
00:35:49.007 : en:Scene 21
00:39:32.007 : en:Scene 22
00:40:39.007 : en:Scene 23
00:43:46.007 : en:Scene 24
00:45:51.007 : en:Scene 25
00:47:32.007 : en:Scene 26
00:51:04.007 : en:Scene 27
00:52:27.007 : en:Scene 28
00:55:24.007 : en:Scene 29
00:56:56.007 : en:Scene 30
00:58:07.007 : en:Scene 31
01:01:52.007 : en:Scene 32
01:03:08.007 : en:Scene 33
01:05:56.007 : en:Scene 34
01:09:00.007 : en:Scene 35
01:09:18.007 : en:Scene 36
01:10:43.007 : en:Scene 37
01:12:07.007 : en:Scene 38
01:13:55.007 : en:Scene 39
01:17:40.007 : en:Scene 40
01:20:15.007 : en:Scene 41
01:24:03.007 : en:Scene 42
01:25:48.007 : en:Scene 43
01:28:07.007 : en:Scene 44
01:32:02.007 : en:Scene 45
01:34:27.007 : en:Scene 46
01:37:52.007 : en:Scene 47
01:39:58.007 : en:Scene 48
01:45:32.007 : en:Scene 49
01:49:27.007 : en:Scene 50
piratbit.pw



Скачать Нелл через торрент https://i5.imageban.ru/out/2019/07/11/5cc9f79f5b37b709e242853f45285beb.png Скачать фильм Нелл через торрент бесплантно в хорошем качестве Описание: Деревенский доктор Джером Ловелл обнаруживает в глухих местах Северной Каролины «дикарку», которая сторонится людей и говорит на ... 5 10 1
Info! Серебряная раздача, засчитывается только 50% скачанного.
Торрент: Зарегистрирован [2019-07-11 18:41] · скачан: 3 раз
Статус: √ проверено
Размер: 12.5 GB
Как cкачать? Как скачать Нелл через торрент | qTorrent

% Раздел Тема Автор DL S | L
Фильмы (WEB-DL 720p, 1080p) [ 7.03 GB ] Нелл / Nell [1994 экранизация WEB-DLRip 720p] DVO + AVO - KORSAR kisa1980 Скачать
1 | 0


>> Регистрируемся здесь <<






Отзывы и комментарии о схеме читаем и пишем здесь: ---> Отзывы и комментарии о схеме

Новые благодарочки в телеграм довольных пользователей:
скриншот   скриншот   скриншот   скриншот   скриншот
    Дорогой пользователь! Огромная просьба, поблагодарите релизера, оцените раздачу и оставьте свои комментарий, если Вы скачали Нелл через торрент бесплатно! Внесите свою лепту в развитие PiratBit!
    Комментировать посты могут только пользователи прошедшие не сложную регистрацию
    Показать сообщения:    

    Нелл через торрент
    Скачать бесплатно Нелл
    Нелл скачать торрент
    Нелл смотреть онлайн
    Cкачать фильм Нелл бесплатно
    Нелл скачать торрент в хорошем качестве
    Нелл смотреть онлайн бесплатно в хорошем качестве


    Вы не можете начинать темы
    Вы не можете отвечать на сообщения
    Вы не можете редактировать свои сообщения
    Вы не можете удалять свои сообщения
    Вы не можете голосовать в опросах
    Вы не можете прикреплять файлы к сообщениям
    Вы можете скачивать файлы