новый адрес пиратбит piratbit
Мега распродажа FORZA HORIZON 4 ULTIMATE+ВСЕ DLC+ОНЛАЙН всего за 499р. 349 руб. (супер цена). Внимание количество ограничено!!!

iTunes

1+1

iTunes

мы

iTunes

1

iTunes

Чернобыль

iTunes

Ральф против интернета

Лицензия

ПШазам

Лицензия

Игра престолов

Лицензия

30
pack

ВАЖНО

!!Акция!!

Alien_RageХит недели

RePack

Resident Evil 21

ИГРА 18+

pack

RePack

Metro:Exodus

!!Акция!!

Alien_Rage

RePack

fifa19

RePack

Assassins Creed: Odyssey

RePack

NEED FOR SPEED™ PAYBACK

3 сезон

9 сезон

Бесстыжие 9 сезон

Все сериалы

все сериалы на PB.wtf

RePack

FAR CRY 5
Ребята, катастрофически не хватает 1900р. для оплаты серверов за Октябрь (всвязи с блокировками трафик упал в 3 раза), 1-2р., выручайте.
  

Сила веры / Leap of Faith (Ричард Пирс) [1992 г., драма, мелодрама, комедия, WEB-DL 1080p] DVO + AVO - KORSAR piratbit.pw

Сила веры через торрент piratbit.pw

Размер: 12.54 GB | Добавлен: 4 мес. 3 д. назад | Торрент скачан:1 раз
Скачать  

11-07-2019 18:02 Сила веры Скачать торрент  

Сила веры / Leap of Faith
Год выпуска: 1992
Страна: США
Жанр: Драма, мелодрама, комедия
Продолжительность: 01:47:59
Перевод: Профессиональный двухголосый, авторский одноголосый
Субтитры: Английские, немецкие, испанские
Режиссёр: Ричард Пирс
В ролях: Стив Мартин, Дебра Уингер, Лолита Давидович, Лиам Нисон, Лукас Хаас, Мит Лоаф, Филип Сеймур Хоффман, М. К. Гейни, Ла Чэнз, Делорес Холл
Описание: Бывший преступник Джонас Найтингейл стал бродячим евангелистом, чьи проповеди можно скорее назвать религиозно-цирковыми представлениями. Случилось так, что Джонас «застрял» в небольшом провинциальном городишке, где половина жителей — безработные, выброшенные на улицу сталелитейной компанией. Проходимец вытрясает из горожан их последние деньги, не испытывая при этом ни малейших угрызений совести, но на одном из «шоу» происходит истинное чудо, заставляющее его всерьез поверить в бога.

rating

Качество: WEB-DL 1080p
Формат: MKV
Видео: MPEG-4 AVC, 1920x1080 (16:9), 14500 kbps, 23.976 fps
Аудио 1: Russian: 48 kHz, AC3, 5.1 ch, 448 kbps - DVO, Премьер Видео
Аудио 2: Russian: 48 kHz, AC3, 2.0 ch, 192 kbps - DVO, НТВ+
Аудио 3: Russian: 48 kHz, AC3, 2.0 ch, 192 kbps - AVO, А. Михалев
Аудио 4: Russian: 48 kHz, AC3, 2.0 ch, 192 kbps - AVO, Л. Володарский
Аудио 5: Ukrainian: 48 kHz, AC3, 2.0 ch, 192 kbps - DVO
Аудио 6: English: 48 kHz, EAC3, 5.1 ch, 640 kbps - Оригинал

Релиз от:


Общее
Уникальный идентификатор : 180305312238057368035701436445824258568 (0x87A58A3D40993602944CE4EB9B8A1208)
Полное имя : Сила.веры.1992.AMZN.WEB-DL.1080p.mkv
Формат : Matroska
Версия формата : Version 2
Размер файла : 12,5 Гбайт
Продолжительность : 1 ч. 47 м.
Режим общего битрейта : Переменный
Общий поток : 16,6 Мбит/сек
Дата кодирования : UTC 2018-03-29 18:50:41
Программа кодирования : mkvmerge v5.8.0 ('No Sleep / Pillow') built on Sep 2 2012 15:37:04
Библиотека кодирования : libebml v1.2.3 + libmatroska v1.3.0

Видео
Идентификатор : 1
Формат : AVC
Формат/Информация : Advanced Video Codec
Профиль формата : High@L4
Настройки формата : CABAC / 4 Ref Frames
Параметр CABAC формата : Да
Параметр RefFrames формата : 4 кадра
Идентификатор кодека : V_MPEG4/ISO/AVC
Продолжительность : 1 ч. 47 м.
Вид битрейта : Переменный
Битрейт : 14,4 Мбит/сек
Максимальный битрейт : 15,0 Мбит/сек
Ширина : 1920 пикселей
Высота : 1080 пикселей
Соотношение сторон : 16:9
Режим частоты кадров : Постоянный
Частота кадров : 23,976 (24000/1001) кадра/сек
Цветовое пространство : YUV
Субдискретизация насыщенности : 4:2:0
Битовая глубина : 8 бит
Тип развёртки : Прогрессивная
Бит/(Пиксели*Кадры) : 0.290
Размер потока : 10,9 Гбайт (87%)
Библиотека кодирования : x264 core 148 r2623 d5b2374
Настройки программы : cabac=1 / ref=4 / deblock=1:-1:-1 / analyse=0x3:0x133 / me=umh / subme=9 / psy=1 / psy_rd=1.00:0.15 / mixed_ref=1 / me_range=24 / chroma_me=1 / trellis=2 / 8x8dct=1 / cqm=0 / deadzone=21,11 / fast_pskip=1 / chroma_qp_offset=-3 / threads=34 / lookahead_threads=5 / sliced_threads=0 / nr=150 / decimate=1 / interlaced=0 / bluray_compat=0 / constrained_intra=0 / bframes=8 / b_pyramid=2 / b_adapt=2 / b_bias=0 / direct=3 / weightb=1 / open_gop=0 / weightp=2 / keyint=120 / keyint_min=61 / scenecut=0 / intra_refresh=0 / rc_lookahead=120 / rc=crf / mbtree=1 / crf=18.0 / qcomp=0.60 / qpmin=0 / qpmax=69 / qpstep=4 / vbv_maxrate=15000 / vbv_bufsize=31250 / crf_max=0.0 / nal_hrd=vbr / filler=0 / ip_ratio=1.40 / aq=3:1.00
Язык : English
Default : Да
Forced : Нет
Цветовой диапазон : Limited
Основные цвета : BT.709
Характеристики трансфера : BT.709
Коэффициенты матрицы : BT.709

Аудио #1
Идентификатор : 2
Формат : AC-3
Формат/Информация : Audio Coding 3
Идентификатор кодека : A_AC3
Продолжительность : 1 ч. 47 м.
Вид битрейта : Постоянный
Битрейт : 448 Кбит/сек
Каналы : 6 каналов
Расположение каналов : Front: L C R, Side: L R, LFE
Частота : 48,0 КГц
Частота кадров : 31,250 кадров/сек (1536 SPF)
Битовая глубина : 16 бит
Метод сжатия : С потерями
Размер потока : 346 Мбайт (3%)
Заголовок : DVO | Премьер Видео
Язык : Russian
По умолчанию : Да
Принудительно : Нет

Аудио #2
Идентификатор : 3
Формат : AC-3
Формат/Информация : Audio Coding 3
Идентификатор кодека : A_AC3
Продолжительность : 1 ч. 47 м.
Вид битрейта : Постоянный
Битрейт : 192 Кбит/сек
Каналы : 2 канала
Расположение каналов : Front: L R
Частота : 48,0 КГц
Частота кадров : 31,250 кадров/сек (1536 SPF)
Битовая глубина : 16 бит
Метод сжатия : С потерями
Размер потока : 148 Мбайт (1%)
Заголовок : DVO | НТВ+
Язык : Russian
По умолчанию : Нет
Принудительно : Нет

Аудио #3
Идентификатор : 4
Формат : AC-3
Формат/Информация : Audio Coding 3
Идентификатор кодека : A_AC3
Продолжительность : 1 ч. 47 м.
Вид битрейта : Постоянный
Битрейт : 192 Кбит/сек
Каналы : 2 канала
Расположение каналов : Front: L R
Частота : 48,0 КГц
Частота кадров : 31,250 кадров/сек (1536 SPF)
Битовая глубина : 16 бит
Метод сжатия : С потерями
Размер потока : 148 Мбайт (1%)
Заголовок : AVO | А. Михалев
Язык : Russian
По умолчанию : Нет
Принудительно : Нет

Аудио #4
Идентификатор : 5
Формат : AC-3
Формат/Информация : Audio Coding 3
Идентификатор кодека : A_AC3
Продолжительность : 1 ч. 47 м.
Вид битрейта : Постоянный
Битрейт : 192 Кбит/сек
Каналы : 2 канала
Расположение каналов : Front: L R
Частота : 48,0 КГц
Частота кадров : 31,250 кадров/сек (1536 SPF)
Битовая глубина : 16 бит
Метод сжатия : С потерями
Размер потока : 148 Мбайт (1%)
Заголовок : AVO | Л. Володарский
Язык : Russian
По умолчанию : Нет
Принудительно : Нет

Аудио #5
Идентификатор : 6
Формат : AC-3
Формат/Информация : Audio Coding 3
Идентификатор кодека : A_AC3
Продолжительность : 1 ч. 47 м.
Вид битрейта : Постоянный
Битрейт : 192 Кбит/сек
Каналы : 2 канала
Расположение каналов : Front: L R
Частота : 48,0 КГц
Частота кадров : 31,250 кадров/сек (1536 SPF)
Битовая глубина : 16 бит
Метод сжатия : С потерями
Размер потока : 148 Мбайт (1%)
Заголовок : DVO
Язык : Ukrainian
По умолчанию : Нет
Принудительно : Нет

Аудио #6
Идентификатор : 7
Формат : E-AC-3
Формат/Информация : Enhanced Audio Coding 3
Идентификатор кодека : A_EAC3
Продолжительность : 1 ч. 47 м.
Вид битрейта : Постоянный
Битрейт : 640 Кбит/сек
Каналы : 6 каналов
Расположение каналов : Front: L C R, Side: L R, LFE
Частота : 48,0 КГц
Частота кадров : 187,500 кадров/сек (256 SPF)
Метод сжатия : С потерями
Размер потока : 494 Мбайт (4%)
Заголовок : Original
Язык : English
По умолчанию : Нет
Принудительно : Нет
Текст #1
Идентификатор : 8
Формат : UTF-8
Идентификатор кодека : S_TEXT/UTF8
Идентификатор кодека/Информация : UTF-8 Plain Text
Язык : English
По умолчанию : Нет
Принудительно : Нет

Текст #2
Идентификатор : 9
Формат : UTF-8
Идентификатор кодека : S_TEXT/UTF8
Идентификатор кодека/Информация : UTF-8 Plain Text
Заголовок : SDH
Язык : English
По умолчанию : Нет
Принудительно : Нет

Текст #3
Идентификатор : 10
Формат : UTF-8
Идентификатор кодека : S_TEXT/UTF8
Идентификатор кодека/Информация : UTF-8 Plain Text
Язык : German
По умолчанию : Нет
Принудительно : Нет

Текст #4
Идентификатор : 11
Формат : UTF-8
Идентификатор кодека : S_TEXT/UTF8
Идентификатор кодека/Информация : UTF-8 Plain Text
Язык : Spanish
По умолчанию : Нет
Принудительно : Нет

Меню
00:00:00.000 : en:Jonas Nightengale
00:09:47.000 : en:Decaf, Toast And Salvation
00:14:38.000 : en:Community Outreach
00:24:52.000 : en:The Big Revival Show
00:34:14.000 : en:Healing
00:40:49.000 : en:Neighborly Concern
00:46:20.000 : en:Little Brother's Faith
00:51:39.000 : en:Reforming Jane
00:54:53.000 : en:Jonas Exposed
01:04:23.000 : en:A Righteous Man
01:10:55.000 : en:A Miracle?
01:17:24.000 : en:Consorting With The Enemy
01:24:03.000 : en:One More!
01:31:46.000 : en:The Genuine Article
01:36:33.000 : en:Rain
piratbit.pw



Скачать Сила веры через торрент https://i5.imageban.ru/out/2019/07/11/f6bb6c0dd3f684573073475b73405f2e.png Скачать фильм Сила веры через торрент бесплантно в хорошем качестве Описание: Бывший преступник Джонас Найтингейл стал бродячим евангелистом, чьи проповеди можно скорее назвать религиозно-цирковыми ... 10 10 3
Info! Золотая раздача, скачанное не засчитывается.
Торрент: Зарегистрирован [2019-07-11 18:02] · скачан: 1 раз
Статус: √ проверено
Размер: 12.54 GB
Как cкачать? Как скачать Сила веры через торрент | qTorrent


>> Регистрируемся здесь <<






Отзывы и комментарии о схеме читаем и пишем здесь: ---> Отзывы и комментарии о схеме

Новые благодарочки в телеграм довольных пользователей:
скриншот   скриншот   скриншот   скриншот   скриншот
    Дорогой пользователь! Огромная просьба, поблагодарите релизера, оцените раздачу и оставьте свои комментарий, если Вы скачали Сила веры через торрент бесплатно! Внесите свою лепту в развитие PiratBit!
    Комментировать посты могут только пользователи прошедшие не сложную регистрацию
    Показать сообщения:    

    Сила веры через торрент
    Скачать бесплатно Сила веры
    Сила веры скачать торрент
    Сила веры смотреть онлайн
    Cкачать фильм Сила веры бесплатно
    Сила веры скачать торрент в хорошем качестве
    Сила веры смотреть онлайн бесплатно в хорошем качестве


    Вы не можете начинать темы
    Вы не можете отвечать на сообщения
    Вы не можете редактировать свои сообщения
    Вы не можете удалять свои сообщения
    Вы не можете голосовать в опросах
    Вы не можете прикреплять файлы к сообщениям
    Вы можете скачивать файлы