новый адрес пиратбит piratbit
Мега распродажа FORZA HORIZON 4 ULTIMATE+ВСЕ DLC+ОНЛАЙН всего за 499р. 349 руб. (супер цена). Внимание количество ограничено!!!

iTunes

1+1

iTunes

мы

iTunes

1

iTunes

Чернобыль

iTunes

Ральф против интернета

Лицензия

ПШазам

Лицензия

Игра престолов

Лицензия

30
pack

ВАЖНО

!!Акция!!

Alien_RageХит недели

RePack

Resident Evil 21

ИГРА 18+

pack

RePack

Metro:Exodus

!!Акция!!

Alien_Rage

RePack

fifa19

RePack

Assassins Creed: Odyssey

RePack

NEED FOR SPEED™ PAYBACK

3 сезон

9 сезон

Бесстыжие 9 сезон

Все сериалы

все сериалы на PB.wtf

RePack

FAR CRY 5
Ребята, катастрофически не хватает 1900р. для оплаты серверов за Октябрь (всвязи с блокировками трафик упал в 3 раза), 1-2р., выручайте.
  

Крутой парень / The New Guy (Эд Дектер) [2002 г., комедия, WEB-DL 1080p] Dub + MVO + DVO + AVO - KORSAR piratbit.pw

Крутой парень через торрент piratbit.pw

Размер: 8.62 GB | Добавлен: 4 мес. 1 д. назад | Торрент скачан:38 раз
Скачать  

11-07-2019 15:02 Крутой парень Скачать торрент  

Крутой парень / The New Guy
Год выпуска: 2002
Страна: США
Жанр: Комедия
Продолжительность: 01:28:31
Перевод: Дублированный, профессиональный многоголосый, профессиональный двухголосый, авторский одноголосый
Субтитры: Русские, английские, немецкие, испанские
Режиссёр: Эд Дектер
В ролях: DJ Куаллс, Элиза Душку, Зои Дешанель, Джерод Миксон, Парри Шен, Лайл Лаветт, Эдди Гриффин, Санни Мабри, Росс Паттерсон, Мэтт Годжин
Описание: В обычной средней школе появляется новый парень - Гил Харрис. Он сам Мистер Популярность. Загадочный и очаровательный Гил без труда завоевывает сердца девушек. Однако у нового самого популярного парня в школе есть своя тайна. Еще совсем недавно его звали Диззи, он учился в другой школе и был там неудачником. Но как же малопривлекательный Диззи превратился в блистательного Гила, любимца всей школы? Просто Диззи захотел измениться. Один из парней, Лютер, рассказал ему несколько секретов, которые гарантировали Диззи популярность. Неукоснительно выполняя советы Лютера, Диззи смог добиться успеха в новой школе. Однако новый парень нравится далеко не всем учащимся школы.

rating

Качество: WEB-DL 1080p
Формат: MKV
Видео: MPEG-4 AVC, 1920x1040 (1.85:1), 12700 kbps, 23.976 fps
Аудио 1: Russian: 48 kHz, AC3, 5.1 ch, 448 kbps - DUB, Невафильм
Аудио 2: Russian: 48 kHz, AC3, 2.0 ch, 192 kbps - MVO, ТНТ
Аудио 3: Russian: 48 kHz, AC3, 2.0 ch, 192 kbps - DVO
Аудио 4: Russian: 48 kHz, AC3, 2.0 ch, 192 kbps - AVO, Е. Гранкин
Аудио 5: English: 48 kHz, AC3, 2.0 ch, 224 kbps - Оригинал

Релиз от:


Общее
Уникальный идентификатор : 242870779244323317624347934625417759351 (0xB6B735EC43368590A05C236B7BF58A77)
Полное имя : Крутой.парень.2002.WEB-DL.1080p.mkv
Формат : Matroska
Версия формата : Version 2
Размер файла : 8,62 Гбайт
Продолжительность : 1 ч. 28 м.
Режим общего битрейта : Переменный
Общий поток : 13,9 Мбит/сек
Дата кодирования : UTC 2018-04-04 17:38:33
Программа кодирования : mkvmerge v5.8.0 ('No Sleep / Pillow') built on Sep 2 2012 15:37:04
Библиотека кодирования : libebml v1.2.3 + libmatroska v1.3.0

Видео
Идентификатор : 1
Формат : AVC
Формат/Информация : Advanced Video Codec
Профиль формата : High@L4
Параметр CABAC формата : Да
Параметр RefFrames формата : 4 кадра
Идентификатор кодека : V_MPEG4/ISO/AVC
Продолжительность : 1 ч. 28 м.
Вид битрейта : Переменный
Битрейт : 12,4 Мбит/сек
Максимальный битрейт : 15,0 Мбит/сек
Ширина : 1920 пикселей
Высота : 1040 пикселей
Соотношение сторон : 1,85:1
Режим частоты кадров : Постоянный
Частота кадров : 23,976 (24000/1001) кадра/сек
Цветовое пространство : YUV
Субдискретизация насыщенности : 4:2:0
Битовая глубина : 8 бит
Тип развёртки : Прогрессивная
Бит/(Пиксели*Кадры) : 0.259
Размер потока : 7,67 Гбайт (89%)
Язык : English
Default : Да
Forced : Нет
Цветовой диапазон : Limited
Основные цвета : BT.709
Характеристики трансфера : BT.709
Коэффициенты матрицы : BT.709

Аудио #1
Идентификатор : 2
Формат : AC-3
Формат/Информация : Audio Coding 3
Параметр Endianness формата : Big
Идентификатор кодека : A_AC3
Продолжительность : 1 ч. 28 м.
Вид битрейта : Постоянный
Битрейт : 448 Кбит/сек
Каналы : 6 каналов
Расположение каналов : Front: L C R, Side: L R, LFE
Частота : 48,0 КГц
Частота кадров : 31,250 кадров/сек (1536 SPF)
Битовая глубина : 16 бит
Метод сжатия : С потерями
Размер потока : 284 Мбайт (3%)
Заголовок : DUB | Невафильм
Язык : Russian
ServiceKind/String : Complete Main
Default : Да
Forced : Нет

Аудио #2
Идентификатор : 3
Формат : AC-3
Формат/Информация : Audio Coding 3
Параметр Endianness формата : Big
Идентификатор кодека : A_AC3
Продолжительность : 1 ч. 28 м.
Вид битрейта : Постоянный
Битрейт : 192 Кбит/сек
Каналы : 2 канала
Расположение каналов : Front: L R
Частота : 48,0 КГц
Частота кадров : 31,250 кадров/сек (1536 SPF)
Битовая глубина : 16 бит
Метод сжатия : С потерями
Размер потока : 122 Мбайт (1%)
Заголовок : MVO | ТНТ
Язык : Russian
ServiceKind/String : Complete Main
Default : Нет
Forced : Нет

Аудио #3
Идентификатор : 4
Формат : AC-3
Формат/Информация : Audio Coding 3
Параметр Endianness формата : Big
Идентификатор кодека : A_AC3
Продолжительность : 1 ч. 28 м.
Вид битрейта : Постоянный
Битрейт : 192 Кбит/сек
Каналы : 2 канала
Расположение каналов : Front: L R
Частота : 48,0 КГц
Частота кадров : 31,250 кадров/сек (1536 SPF)
Битовая глубина : 16 бит
Метод сжатия : С потерями
Размер потока : 122 Мбайт (1%)
Заголовок : DVO
Язык : Russian
ServiceKind/String : Complete Main
Default : Нет
Forced : Нет

Аудио #4
Идентификатор : 5
Формат : AC-3
Формат/Информация : Audio Coding 3
Параметр Endianness формата : Big
Идентификатор кодека : A_AC3
Продолжительность : 1 ч. 28 м.
Вид битрейта : Постоянный
Битрейт : 192 Кбит/сек
Каналы : 2 канала
Расположение каналов : Front: L R
Частота : 48,0 КГц
Частота кадров : 31,250 кадров/сек (1536 SPF)
Битовая глубина : 16 бит
Метод сжатия : С потерями
Размер потока : 122 Мбайт (1%)
Заголовок : AVO | Е. Гранкин
Язык : Russian
ServiceKind/String : Complete Main
Default : Нет
Forced : Нет

Аудио #5
Идентификатор : 6
Формат : E-AC-3
Формат/Информация : Enhanced Audio Coding 3
Параметр Endianness формата : Big
Идентификатор кодека : A_EAC3
Продолжительность : 1 ч. 28 м.
Вид битрейта : Постоянный
Битрейт : 224 Кбит/сек
Каналы : 2 канала
Расположение каналов : Front: L R
Частота : 48,0 КГц
Частота кадров : 187,500 кадров/сек (256 SPF)
Метод сжатия : С потерями
Размер потока : 142 Мбайт (2%)
Заголовок : Original
Язык : English
ServiceKind/String : Complete Main
Default : Нет
Forced : Нет

Текст #1
Идентификатор : 7
Формат : UTF-8
Идентификатор кодека : S_TEXT/UTF8
Идентификатор кодека/Информация : UTF-8 Plain Text
Язык : Russian
Default : Нет
Forced : Нет

Текст #2
Идентификатор : 8
Формат : UTF-8
Идентификатор кодека : S_TEXT/UTF8
Идентификатор кодека/Информация : UTF-8 Plain Text
Язык : English
Default : Нет
Forced : Нет

Текст #3
Идентификатор : 9
Формат : UTF-8
Идентификатор кодека : S_TEXT/UTF8
Идентификатор кодека/Информация : UTF-8 Plain Text
Заголовок : SDH
Язык : English
Default : Нет
Forced : Нет

Текст #4
Идентификатор : 10
Формат : UTF-8
Идентификатор кодека : S_TEXT/UTF8
Идентификатор кодека/Информация : UTF-8 Plain Text
Язык : German
Default : Нет
Forced : Нет

Текст #5
Идентификатор : 11
Формат : UTF-8
Идентификатор кодека : S_TEXT/UTF8
Идентификатор кодека/Информация : UTF-8 Plain Text
Язык : Spanish
Default : Нет
Forced : Нет

Меню
00:00:00.000 : en:Start
00:03:33.592 : en:First day, senior year
00:06:19.592 : en:"MINE!"
00:09:26.592 : en:Dizzy gets the spirit
00:11:24.592 : en:A lesson in bad
00:14:16.592 : en:Grounds for expulsion
00:17:15.592 : en:Building toughness
00:22:16.592 : en:Gil Harris
00:24:45.592 : en:Biggest & baddest competition
00:29:52.592 : en:Babe magnet
00:34:18.592 : en:Grand entrance
00:36:37.592 : en:"Gil blew me off."
00:37:33.592 : en:Earth's most outrageous woman
00:40:25.592 : en:Surrounded with love
00:45:08.592 : en:Team spirit
00:48:48.592 : en:Swimsuit shopping
00:50:05.592 : en:Dropping his friends
00:52:29.592 : en:A happy faculty
00:55:53.592 : en:Ed Ligget
00:58:46.592 : en:"Let It Whip"
01:02:27.592 : en:Riding the bull
01:05:57.592 : en:Dizzy William Wallace
01:07:53.592 : en:Highlanders vs. Drillers
01:11:27.592 : en:A very sore loser
01:13:35.592 : en:Suburban Funk
01:16:00.592 : en:The same guy
01:18:52.592 : en:Something in common
01:21:44.592 : en:Outtakes & Credits
piratbit.pw



Скачать Крутой парень через торрент https://i2.imageban.ru/out/2019/07/11/fba1d13879146a6fe73ad567b1ab3a45.png Скачать фильм Крутой парень через торрент бесплантно в хорошем качестве Описание: В обычной средней школе появляется новый парень - Гил Харрис. Он сам Мистер Популярность. Загадочный и очаровательный Гил без ... 7 10 3
Торрент: Зарегистрирован [2019-07-11 15:02] · скачан: 38 раз
Статус: √ проверено
Размер: 8.62 GB
Как cкачать? Как скачать Крутой парень через торрент | qTorrent


>> Регистрируемся здесь <<






Отзывы и комментарии о схеме читаем и пишем здесь: ---> Отзывы и комментарии о схеме

Новые благодарочки в телеграм довольных пользователей:
скриншот   скриншот   скриншот   скриншот   скриншот
    Дорогой пользователь! Огромная просьба, поблагодарите релизера, оцените раздачу и оставьте свои комментарий, если Вы скачали Крутой парень через торрент бесплатно! Внесите свою лепту в развитие PiratBit!
    Комментировать посты могут только пользователи прошедшие не сложную регистрацию
    Показать сообщения:    

    Крутой парень через торрент
    Скачать бесплатно Крутой парень
    Крутой парень скачать торрент
    Крутой парень смотреть онлайн
    Cкачать фильм Крутой парень бесплатно
    Крутой парень скачать торрент в хорошем качестве
    Крутой парень смотреть онлайн бесплатно в хорошем качестве


    Вы не можете начинать темы
    Вы не можете отвечать на сообщения
    Вы не можете редактировать свои сообщения
    Вы не можете удалять свои сообщения
    Вы не можете голосовать в опросах
    Вы не можете прикреплять файлы к сообщениям
    Вы можете скачивать файлы